img image001 image001 image001 image001 image001 image001 image001 image001 image001 image001 image001 image001 image001 image001 image001

Planets Sun Sun Sun
Статистика раздачи
Автор: Nickolas3434 | Размер: 534.38 МБ | Добавлен: 22 мар 2014
Раздают: 39    Качают: 7
Скачать торрент
Скачать торрент
Описание торрента

СообщениеДобавлено: 22 мар 2014 


Информация
Название: Вечерний Ургант
Год выпуска: 2014
Жанр: ТВ-Шоу
Ведущий: Иван Ургант


Описание:
Каждый вечер с понедельника по четверг за полчаса до полуночи Иван Ургант провожает этот день вместе с вами. С хорошим настроением, хорошей музыкой и теми людьми, которые ему интересны. "Вечерний Ургант" с понедельника по четверг.


Продолжительность: ~ 00:45:37
Выпущено:
Перевод: Не требуется
Язык: Русский
Автор рипа: Taz
Файл
Формат: AVI
Качество: SATRip
Видео: XviD, ~1500 kb/s, 720 x 400
Аудио: MP3, 2 ch, 128 Кбит/с

Формат : AVI
Формат/Информация : Audio Video Interleave
Размер файла : 534 Мбайт
Продолжительность : 45 м.
Общий поток : 1637 Кбит/сек
Программа кодирования : VirtualDubMod 1.5.10.3 | || (build 2550/release)
Библиотека кодирования : VirtualDub build 35491/release
Видео
Идентификатор : 0
Формат : MPEG-4 Visual
Профиль формата : Advanced Simple@L5
Параметр BVOP формата : 2
Параметр QPel формата : Нет
Параметр GMC формата : Без точки перехода
Параметр матрицы формата : Default (H.263)
Идентификатор кодека : XVID
Идентификатор кодека/Подсказка : XviD
Продолжительность : 45 м.
Битрейт : 1500 Кбит/сек
Ширина : 720 пикселей
Высота : 400 пикселей
Соотношение сторон : 16:9
Частота кадров : 25,000 кадров/сек
Цветовое пространство : YUV
Субдискретизация насыщенности : 4:2:0
Битовая глубина : 8 бит
Тип развёртки : Прогрессивная
Метод сжатия : С потерями
Бит/(Пиксели*Кадры) : 0.208
Размер потока : 489 Мбайт (92%)
Библиотека кодирования : XviD 1.2.1 (UTC 2008-12-04)
Аудио
Идентификатор : 1
Формат : MPEG Audio
Версия формата : Version 1
Профиль формата : Layer 3
Режим : Joint stereo
Расширение режима : MS Stereo
Идентификатор кодека : 55
Идентификатор кодека/Подсказка : MP3
Продолжительность : 45 м.
Вид битрейта : Постоянный
Битрейт : 128 Кбит/сек
Каналы : 2 канала
Частота : 48,0 КГц
Метод сжатия : С потерями
Размер потока : 41,8 Мбайт (8%)
Выравнивание : Соединение по промежуткам
Продолжительность промежутка : 40 мс. (1,00 видеокадр)
Время предзагрузки промежутка : 504 мс.
Библиотека кодирования : LAME3.99r
Настройки программы : -m j -V 4 -q 2 -lowpass 17 -b 128






   Похожие торренты   Торрент   Размер 
В этой теме нет новых непрочитанных сообщений. Вечерний Ургант [24.03] (2014) SATRip

50 | 25

374.24 МБ

В этой теме нет новых непрочитанных сообщений. Вечерний Ургант [01.04] (2014) SATRip

142 | 38

385.07 МБ

В этой теме нет новых непрочитанных сообщений. Вечерний Ургант [27.03] (2014) SATRip

89 | 5

307.01 МБ

В этой теме нет новых непрочитанных сообщений. Вечерний Ургант [06x11] [19.09] (2014) SATRip

54 | 6

592.42 МБ

В этой теме нет новых непрочитанных сообщений. Вечерний Ургант [06x16] [26.09] (2014) SATRip

41 | 5

654.39 МБ

В этой теме нет новых непрочитанных сообщений. Вечерний Ургант [06x30] [20.10] (2014) SATRip

24 | 3

371.98 МБ

В этой теме нет новых непрочитанных сообщений. Вечерний Ургант [Андрей Смоляков] (2014) SATRip от ExKinoRay

24 | 2

394.08 МБ




Вы не можете начинать темы
Вы не можете отвечать на сообщения
Вы не можете редактировать свои сообщения
Вы не можете удалять свои сообщения
Вы не можете добавлять вложения

Перейти:  
Для Мосгорсуда, Роскомнадзора и рекламодателей: mosgorsud-torrent[собачка]yandex.ru
 Вход
ppkBB3cker v.2 © 2008-2014 @ PPK
[ Time : 0.023s | 15 Queries | GZIP : Off ]

cron