img image001 image001 image001 image001 image001 image001 image001 image001 image001 image001 image001 image001 image001 image001 image001

Planets Sun Sun Sun
Статистика раздачи
Автор: Nickolas3434 | Размер: 567.03 МБ | Добавлен: 23 мар 2014
Раздают: 121    Качают: 6
Скачать торрент
Скачать торрент
Описание торрента

СообщениеДобавлено: 23 мар 2014 


Информация о фильме
Название: Главная дорога
Год выпуска: 2014
Жанр: Телепередача
Ведущие: Денис Юченков, Андрей Федорцов


Описание:
«Главная дорога» — первая на российском телевидении информационная программа обо всем, что происходит на дорогах страны. Это полчаса полезной информации не только для автолюбителей, но и для пешеходов. В постоянной рубрике «Испытано на себе» зрителей ждут наглядные советы, как вести себя в сложных ситуациях на дорогах. Сложнейший курс контраварийной подготовки, адаптированный для массового зрителя, научит водителей уверенно держаться за рулем. Занятия проводит инструктор известного во всем мире Центра высшего водительского мастерства. И в каждом выпуске проекта — моделирование аварийных ситуаций: разбор и рекомендации по предотвращению происшествий, а также советы юристов. В рубрике «$еконд-тест» ведущие программы вместе с автоэкспертами выбирают подержанные автомобили, испытывают их на полигоне и проверяют в сервисе. А в «Федеральной трассе» рассказывается о дорогах нашей страны, их особенностях и достопримечательностях. Показать всю важность соблюдения ПДД и сделать российские дороги безопаснее — цель программы и ее ведущих — актеров Дениса Юченкова и Андрея Федорцова.


Сказки или новые технологии? Испытываем добавки в масло.
Случайность или везение? Как выживают в страшных авариях?
А также — мечта поэта.



Продолжительность: ~ 00:26:58
Выпущено:
Перевод: Не требуется
Автор рипа: ramzesII
Файл
Формат: TS
Качество: DVB
Видео: MPEG-TS, ~2664 kb/s, 720 x 576
Аудио: MP3, 2ch., 128 kb/s

Формат : MPEG-TS
Размер файла : 567 Мбайт
Продолжительность : 26 м.
Режим общего битрейта : Переменный
Общий поток : 2939 Кбит/сек
Видео
Идентификатор : 69 (0x45)
Идентификатор меню : 1 (0x1)
Формат : MPEG Video
Версия формата : Version 2
Профиль формата : Main@Main
Параметр BVOP формата : Да
Параметр матрицы формата : Выборочная
Идентификатор кодека : 2
Продолжительность : 26 м.
Вид битрейта : Переменный
Битрейт : 2664 Кбит/сек
Максимальный битрейт : 15,0 Мбит/сек
Ширина : 720 пикселей
Высота : 576 пикселей
Соотношение сторон : 16:9
Active Format Deion : Full frame 16:9 image
Частота кадров : 25,000 кадров/сек
Стандарт вещания : PAL
Цветовое пространство : YUV
Субдискретизация насыщенности : 4:2:0
Битовая глубина : 8 бит
Тип развёртки : Чересстрочная
Порядок развёртки : Верхнее поле первое
Метод сжатия : С потерями
Бит/(Пиксели*Кадры) : 0.257
Размер потока : 514 Мбайт (91%)
Аудио
Идентификатор : 68 (0x44)
Идентификатор меню : 1 (0x1)
Формат : MPEG Audio
Версия формата : Version 1
Профиль формата : Layer 2
Идентификатор кодека : 3
Продолжительность : 26 м.
Вид битрейта : Постоянный
Битрейт : 128 Кбит/сек
Каналы : 2 канала
Частота : 48,0 КГц
Метод сжатия : С потерями
Задержка видео : -24 мс.
Размер потока : 24,7 Мбайт (4%)
Язык : Russian






   Похожие торренты   Торрент   Размер 
В этой теме нет новых непрочитанных сообщений. Главная дорога [22.03] (2014) IPTVRip

205 | 14

316.31 МБ

В этой теме нет новых непрочитанных сообщений. Главная дорога [29.03] (2014) IPTVRip

533 | 42

316.33 МБ

В этой теме нет новых непрочитанных сообщений. Главная дорога [эфир от 18.01] (2014) SATRip

2 | 3

315.84 МБ

В этой теме нет новых непрочитанных сообщений. Главная дорога [эфир от 15.02] (2014) SATRip

600 | 28

315.9 МБ

В этой теме нет новых непрочитанных сообщений. Главная дорога [эфир от 28.06] (2014) SATRip

160 | 9

312.88 МБ

В этой теме нет новых непрочитанных сообщений. Главная дорога [эфир от 20.09] (2014) SATRip

235 | 27

369.14 МБ

В этой теме нет новых непрочитанных сообщений. Главная дорога [эфир от 20.12] (2014) SATRip

179 | 5

368.13 МБ




Вы не можете начинать темы
Вы не можете отвечать на сообщения
Вы не можете редактировать свои сообщения
Вы не можете удалять свои сообщения
Вы не можете добавлять вложения

Перейти:  
Для Мосгорсуда, Роскомнадзора и рекламодателей: mosgorsud-torrent[собачка]yandex.ru
 Вход
ppkBB3cker v.2 © 2008-2014 @ PPK
[ Time : 0.028s | 14 Queries | GZIP : Off ]

Торрент трекер RUTOR.IN, Не можете зайти на rutor.org? Какой новый адрес рутор? Какое зеркало рутор? Не работает rutor.org и зеркала? Тогда наш торрент специально для вас. Rutor.in неофициальное зеркало rutor. В случае если у Вас заблокирован rutor или вдруг Вы не можете на него зайти, то Вы без труда сможете скачать бесплатно и без рекламы последние новинки кино, игр, сериалов и прочего у нас, на Rutor.in. Не нужно использовать прокси, чтобы зайти на рутор, достаточно воспользоваться нашим ресурсом. Все новые фильмы, игры, сериалы, книги и музыка за 2013 и 2014 годы через торрент бесплатно. Скачивайте фильмы в хорошем качестве, игры для пк, xbox, playstation без регистрации. У нас вы найдете новые Зарубежные сериалы и Русские сериалы 2013, 2014, 2015 годов. Оставайтесь с нами, качайте любимые фильмы, игры, сериалы, книги и музыку.