img image001 image001 image001 image001 image001 image001 image001 image001 image001 image001 image001 image001 image001 image001 image001

Planets Sun Sun Sun
Статистика раздачи
Автор: Nickolas3434 | Размер: 387.97 МБ | Добавлен: 23 мар 2014
Раздают: 175    Качают: 14
Скачать торрент
Скачать торрент
Описание торрента

СообщениеДобавлено: 23 мар 2014 


Информация о фильме
Название: Профессия репортер
Год выпуска: 2014
Жанр: Документальный
Режиссер: Екатерина Гордеева


Описание:
"Профессия-репортер" - это цикл телевизионных репортажей на актуальные темы современного мира. Это интересный, острый социальный или экстремальный репортаж. В каждом еженедельном репортаже заложен свой конфликт, актуальность и проблематика. Каждый корреспондент программы - уникален и преподносит свою, индивидуальную точку зрения на ту или иную проблему, событие или явление. Если в Вашем городе, регионе или стране происходят важные события или необычные явления, если это остро и актуально, пишите нам, и мы обязательно приедем к Вам.


Контролирует ли ситуацию в стране самопровозглашенный премьер Украины и кто контролирует его самого?
Арсений Яценюк — кукловод или марионетка, независимый политик или жертва шантажа?
Почему ликуют адепты запрещенной секты в Америке, чьи слова озвучивает премьер Украины, призывая стрелять по русским, зачем он нужен фашиствующим радикалам и что еще скрыто в тени?


Продолжительность: ~ 00:28:05
Выпущено:
Перевод: Не требуется
Автор рипа: ВИТ555
Файл
Формат: AVI
Качество: SATRip
Видео: XviD, ~1801 kb/s, 720x448
Аудио: MP3, 2ch., 128 kb/s

Формат : AVI
Формат/Информация : Audio Video Interleave
Размер файла : 388 Мбайт
Продолжительность : 28 м.
Общий поток : 1931 Кбит/сек
Программа кодирования : VirtualDubMod 1.5.10.2 (build 2540/release)
Библиотека кодирования : VirtualDub build 32507/release
Видео
Идентификатор : 0
Формат : MPEG-4 Visual
Профиль формата : Advanced Simple@L5
Параметр BVOP формата : 2
Параметр QPel формата : Нет
Параметр GMC формата : Без точки перехода
Параметр матрицы формата : Default (MPEG)
Идентификатор кодека : XVID
Идентификатор кодека/Подсказка : XviD
Продолжительность : 28 м.
Битрейт : 1794 Кбит/сек
Ширина : 720 пикселей
Высота : 448 пикселей
Соотношение сторон : 1,607
Частота кадров : 25,000 кадров/сек
Цветовое пространство : YUV
Субдискретизация насыщенности : 4:2:0
Битовая глубина : 8 бит
Тип развёртки : Прогрессивная
Метод сжатия : С потерями
Бит/(Пиксели*Кадры) : 0.222
Размер потока : 360 Мбайт (93%)
Библиотека кодирования : XviD 64
Аудио
Идентификатор : 1
Формат : MPEG Audio
Версия формата : Version 1
Профиль формата : Layer 3
Режим : Joint stereo
Расширение режима : MS Stereo
Идентификатор кодека : 55
Идентификатор кодека/Подсказка : MP3
Продолжительность : 28 м.
Вид битрейта : Постоянный
Битрейт : 128 Кбит/сек
Каналы : 2 канала
Частота : 48,0 КГц
Метод сжатия : С потерями
Размер потока : 25,7 Мбайт (7%)
Выравнивание : Соединение по промежуткам
Продолжительность промежутка : 40 мс. (1,00 видеокадр)
Время предзагрузки промежутка : 504 мс.







   Похожие торренты   Торрент   Размер 
В этой теме нет новых непрочитанных сообщений. Профессия репортер. Принцесса у параши [29.03] (2014) SATRip

1597 | 298

409.84 МБ

В этой теме нет новых непрочитанных сообщений. Профессия репортер. Сектанты из глубинки: секс и смерть [2014.09.27] (2014) SATRip

91 | 11

410.8 МБ

В этой теме нет новых непрочитанных сообщений. Профессия - репортер [22.02] (2015) SATRip

11 | 5

303.92 МБ

В этой теме нет новых непрочитанных сообщений. Профессия репортер. На Дне (04.06.2011) SATRip

0 | 5

272.46 МБ

В этой теме нет новых непрочитанных сообщений. Профессия репортер [23 выпуска] (2010) SATRip

0 | 5

5.53 ГБ

В этой теме нет новых непрочитанных сообщений. Профессия репортер. Мы не овощи (2010) SATRip

0 | 4

249.72 МБ

В этой теме нет новых непрочитанных сообщений. Профессия - репортер [эфир от 06.10] (2012) SATRip

0 | 2

262.17 МБ




Вы не можете начинать темы
Вы не можете отвечать на сообщения
Вы не можете редактировать свои сообщения
Вы не можете удалять свои сообщения
Вы не можете добавлять вложения

Перейти:  
Для Мосгорсуда, Роскомнадзора и рекламодателей: mosgorsud-torrent[собачка]yandex.ru
 Вход
ppkBB3cker v.2 © 2008-2014 @ PPK
[ Time : 0.539s | 15 Queries | GZIP : Off ]

Торрент трекер RUTOR.IN, Не можете зайти на rutor.org? Какой новый адрес рутор? Какое зеркало рутор? Не работает rutor.org и зеркала? Тогда наш торрент специально для вас. Rutor.in неофициальное зеркало rutor. В случае если у Вас заблокирован rutor или вдруг Вы не можете на него зайти, то Вы без труда сможете скачать бесплатно и без рекламы последние новинки кино, игр, сериалов и прочего у нас, на Rutor.in. Не нужно использовать прокси, чтобы зайти на рутор, достаточно воспользоваться нашим ресурсом. Все новые фильмы, игры, сериалы, книги и музыка за 2013 и 2014 годы через торрент бесплатно. Скачивайте фильмы в хорошем качестве, игры для пк, xbox, playstation без регистрации. У нас вы найдете новые Зарубежные сериалы и Русские сериалы 2013, 2014, 2015 годов. Оставайтесь с нами, качайте любимые фильмы, игры, сериалы, книги и музыку.
cron