img image001 image001 image001 image001 image001 image001 image001 image001 image001 image001 image001 image001 image001 image001 image001

Planets Sun Sun Sun
Статистика раздачи
Автор: Nickolas3434 | Размер: 567.15 МБ | Добавлен: 23 мар 2014
Раздают: 294    Качают: 49
Скачать торрент
Скачать торрент
Описание торрента

СообщениеДобавлено: 23 мар 2014 


Информация о фильме
Название: Общее дело: Секреты манипуляции
Год выпуска: 2014
Жанр: Просветительский
Режиссеры: Алексей Дягтерев, Ярослав Коваленский, Дмитрий Гуров


Описание:
Один из ярких примеров программирования сознания человека - это курение. За личный выбор курящий принимает то, что по факту является циничным финансовым расчетом третьей стороны. Какими уловками и техниками табачные маркетологи втянули в курение огромное количество женщин и молодежи, и почему? Из чего на самом деле состоят сигареты, и как они вызывают наркотическое привыкание? Пассивное курение и его плачевные последствия. Как создавалась мода на курение в нашей стране, и почему мы сами осуществляем план Гитлера в отношении России. Ответы на эти и многие другие вопросы мы находим в новом документальном фильме «Секреты манипуляции - Табак».


Продолжительность: 00:35:14
Выпущено: Россия
Перевод: Не требуется
Файл
Формат: AVI
Качество: WEBRip
Видео: DivX, 720x400 (1.80:1), 23.976 fps, DivX Codec 4.x ~2108 kbps avg, 0.25 bit/pixel
Аудио: MP3, 44.100 kHz, MPEG Layer 3, 2 ch, ~128.00 kbps avg

General
Complete name : C:rusveratabakgenocid.avi
Format : AVI
Format/Info : Audio Video Interleave
File size : 567 MiB
Duration : 35mn 15s
Overall bit rate : 2 249 Kbps
Writing application : Lavf52.32.0
Video
ID : 0
Format : MPEG-4 Visual
Format profile : Simple@L1
Format settings, BVOP : No
Format settings, QPel : No
Format settings, GMC : No warppoints
Format settings, Matrix : Default (H.263)
Codec ID : DIVX
Codec ID/Info : Project Mayo
Codec ID/Hint : DivX 4
Duration : 35mn 14s
Bit rate : 2 109 Kbps
Width : 720 pixels
Height : 400 pixels
Display aspect ratio : 16:9
Frame rate : 23.976 fps
Color space : YUV
Chroma subsampling : 4:2:0
Bit depth : 8 bits
Scan type : Progressive
Compression mode : Lossy
Bits/(Pixel*Frame) : 0.25
Stream size : 532 MiB (94%)
Writing library : Lavc52.22.3
Audio
ID : 1
Format : MPEG Audio
Format version : Version 1
Format profile : Layer 3
Mode : Joint stereo
Mode extension : MS Stereo
Codec ID : 55
Codec ID/Hint : MP3
Duration : 35mn 15s
Bit rate mode : Constant
Bit rate : 128 Kbps
Channel(s) : 2 channels
Sampling rate : 44.1 KHz
Compression mode : Lossy
Stream size : 32.3 MiB (6%)
Alignment : Aligned on interleaves
Interleave, duration : 26 ms (0.63 video frame)
Writing library : LAME3.98.2








   Похожие торренты   Торрент   Размер 
В этой теме нет новых непрочитанных сообщений. Общее дело: Секреты манипуляции. Табак (2014) WEB-DL 720p

166 | 6

1.55 ГБ

В этой теме нет новых непрочитанных сообщений. Общее дело: Секреты манипуляции. Алкоголь (2013) WEB-DL 720p

121 | 31

1.24 ГБ

В этой теме нет новых непрочитанных сообщений. Общее дело: Секреты манипуляции. Алкоголь (2013) BDRip 720p

19 | 3

409.52 МБ

В этой теме нет новых непрочитанных сообщений. Все о курении. часть 1. Дело - табак. (2008) TVRip

4 | 8

720.54 МБ

В этой теме нет новых непрочитанных сообщений. Хамидова В. Р. - Гипноз. Гипнотические манипуляции. Манипуляции подсознания (2010) RTF

113 | 5

1.71 МБ

В этой теме нет новых непрочитанных сообщений. Общее дело / Common Law [01х01-12] (2012) WEB-DL | NewStudio

4 | 1

6.69 ГБ

В этой теме нет новых непрочитанных сообщений. Общее дело / Common Law [01х01] (2012) WEB-DLRip | NewStudio

0 | 2

801.61 МБ




Вы не можете начинать темы
Вы не можете отвечать на сообщения
Вы не можете редактировать свои сообщения
Вы не можете удалять свои сообщения
Вы не можете добавлять вложения

Перейти:  
Для Мосгорсуда, Роскомнадзора и рекламодателей: mosgorsud-torrent[собачка]yandex.ru
 Вход
ppkBB3cker v.2 © 2008-2014 @ PPK
[ Time : 0.022s | 14 Queries | GZIP : Off ]

Торрент трекер RUTOR.IN, Не можете зайти на rutor.org? Какой новый адрес рутор? Какое зеркало рутор? Не работает rutor.org и зеркала? Тогда наш торрент специально для вас. Rutor.in неофициальное зеркало rutor. В случае если у Вас заблокирован rutor или вдруг Вы не можете на него зайти, то Вы без труда сможете скачать бесплатно и без рекламы последние новинки кино, игр, сериалов и прочего у нас, на Rutor.in. Не нужно использовать прокси, чтобы зайти на рутор, достаточно воспользоваться нашим ресурсом. Все новые фильмы, игры, сериалы, книги и музыка за 2013 и 2014 годы через торрент бесплатно. Скачивайте фильмы в хорошем качестве, игры для пк, xbox, playstation без регистрации. У нас вы найдете новые Зарубежные сериалы и Русские сериалы 2013, 2014, 2015 годов. Оставайтесь с нами, качайте любимые фильмы, игры, сериалы, книги и музыку.