img image001 image001 image001 image001 image001 image001 image001 image001 image001 image001 image001 image001 image001 image001 image001

Planets Sun Sun Sun
Статистика раздачи
Автор: Nickolas3434 | Размер: 570.69 МБ | Добавлен: 23 мар 2014
Раздают: 102    Качают: 34
Скачать торрент
Скачать торрент
Описание торрента

СообщениеДобавлено: 23 мар 2014 


Информация о фильме
Название: Центральное телевидение
Год выпуска: 2014
Жанр: Тележурналистика
Ведущие: Вадим Такменёв и Анна Кастерова


Описание:
Сегодня мы вылавливаем новости в телеэфире и Интернете, обсуждаем в очередях и в блогах, обмениваемся ссылками на интересные видеоролики и фото и не делим новости на «официальные» и «из жизни». Чтобы вызвать цепную реакцию, любая тема должна отвечать единственному требованию — быть интересной. Тот же принцип положен в основу нового воскресного проекта НТВ «Центральное телевидение». Формат, в котором нет понятий «формата» и «неформата». Мультимедийный и мультижанровый. Отбирающий информационные поводы по единственному весомому критерию: что интересно — то и показываем! «Центральное телевидение» — это телевизионный шейкер, в котором взбивается и смешивается все что угодно, кроме скучных тем и неинтересных лиц. Ингредиенты всегда разные, и невозможно предугадать, каким будет вкус. Единственный выход — каждый раз пробовать заново!


- Кто спасет мир от голода, а наши кошельки – от разорительных походов по магазинам? Жаркое из гусеницы, шашлык из тараканов: еда будущего уже существует!
- 15 погибших, десятки пострадавших – нет, это не война, а всего лишь жуткое похмелье от суррогатного алкоголя в Забайкальском крае. Как не стать очередной жертвой алкогольных мошенников?
- Хватит тонуть в кредитах! Заработать на квартиру в столице способен даже ребенок. Как?
- Скованные одним списком: санкции против российских чиновников и политиков. Кого и за что решили наказать в Америке и Евросоюзе? Куда поедет отдыхать Елена Мизулина и где собирается провести отпуск с молодой супругой Сергей Миронов?
- Похищение русских туристов в Таиланде: израненную, но живую девушку нашли, а вот судьба ее друга до сих пор неизвестна. Что если эта история окажется совсем не тем, чем кажется?
- Уже две недели нет ответа, куда исчез малазийский «Боинг». Новая версия: на борту самолета во время полета могли проводить секретный эксперимент! Неужели такое возможно и на что могут надеяться близкие пропавших пассажиров?


Продолжительность: ~ 00:41:18
Выпущено:
Перевод: Не требуется
Автор рипа: ВИТ555
Файл
Формат: AVI
Качество: SATRip
Видео: XVID, ~1793 kb/s, 720 x 448
Аудио: MP3, 2.0ch., 128 kb/s

Формат : AVI
Формат/Информация : Audio Video Interleave
Размер файла : 571 Мбайт
Продолжительность : 41 м.
Общий поток : 1931 Кбит/сек
Программа кодирования : VirtualDubMod 1.5.10.2 (build 2540/release)
Библиотека кодирования : VirtualDub build 32507/release
Видео
Идентификатор : 0
Формат : MPEG-4 Visual
Профиль формата : Advanced Simple@L5
Параметр BVOP формата : 2
Параметр QPel формата : Нет
Параметр GMC формата : Без точки перехода
Параметр матрицы формата : Default (MPEG)
Идентификатор кодека : XVID
Идентификатор кодека/Подсказка : XviD
Продолжительность : 41 м.
Битрейт : 1793 Кбит/сек
Ширина : 720 пикселей
Высота : 448 пикселей
Соотношение сторон : 1,607
Частота кадров : 25,000 кадров/сек
Цветовое пространство : YUV
Субдискретизация насыщенности : 4:2:0
Битовая глубина : 8 бит
Тип развёртки : Прогрессивная
Метод сжатия : С потерями
Бит/(Пиксели*Кадры) : 0.222
Размер потока : 530 Мбайт (93%)
Библиотека кодирования : XviD 64
Аудио
Идентификатор : 1
Формат : MPEG Audio
Версия формата : Version 1
Профиль формата : Layer 3
Режим : Joint stereo
Идентификатор кодека : 55
Идентификатор кодека/Подсказка : MP3
Продолжительность : 41 м.
Вид битрейта : Постоянный
Битрейт : 128 Кбит/сек
Каналы : 2 канала
Частота : 48,0 КГц
Метод сжатия : С потерями
Размер потока : 37,8 Мбайт (7%)
Выравнивание : Соединение по промежуткам
Продолжительность промежутка : 40 мс. (1,00 видеокадр)
Время предзагрузки промежутка : 504 мс.








   Похожие торренты   Торрент   Размер 
В этой теме нет новых непрочитанных сообщений. Центральное телевидение [29.03] (2014) SATRip

147 | 45

508.06 МБ

В этой теме нет новых непрочитанных сообщений. Центральное телевидение [эфир от 21.10] (2012) SATRip

1 | 1

1.35 ГБ

В этой теме нет новых непрочитанных сообщений. Центральное телевидение [эфир от 31.08] (2013) SATRip

0 | 1

481.5 МБ

В этой теме нет новых непрочитанных сообщений. Центральное телевидение [эфир от 28.04] (2013) SATRip

1 | 1

536.31 МБ

В этой теме нет новых непрочитанных сообщений. Центральное телевидение [эфир от 26.10] (2013) SATRip

0 | 1

490.52 МБ

В этой теме нет новых непрочитанных сообщений. Центральное телевидение [эфир от 31.03] (2013) SATRip

1 | 1

555.6 МБ

В этой теме нет новых непрочитанных сообщений. Центральное телевидение [эфир от 16.11] (2013) SATRip

0 | 1

464.46 МБ




Вы не можете начинать темы
Вы не можете отвечать на сообщения
Вы не можете редактировать свои сообщения
Вы не можете удалять свои сообщения
Вы не можете добавлять вложения

Перейти:  
Для Мосгорсуда, Роскомнадзора и рекламодателей: mosgorsud-torrent[собачка]yandex.ru
 Вход
ppkBB3cker v.2 © 2008-2014 @ PPK
[ Time : 1.568s | 15 Queries | GZIP : Off ]

Торрент трекер RUTOR.IN, Не можете зайти на rutor.org? Какой новый адрес рутор? Какое зеркало рутор? Не работает rutor.org и зеркала? Тогда наш торрент специально для вас. Rutor.in неофициальное зеркало rutor. В случае если у Вас заблокирован rutor или вдруг Вы не можете на него зайти, то Вы без труда сможете скачать бесплатно и без рекламы последние новинки кино, игр, сериалов и прочего у нас, на Rutor.in. Не нужно использовать прокси, чтобы зайти на рутор, достаточно воспользоваться нашим ресурсом. Все новые фильмы, игры, сериалы, книги и музыка за 2013 и 2014 годы через торрент бесплатно. Скачивайте фильмы в хорошем качестве, игры для пк, xbox, playstation без регистрации. У нас вы найдете новые Зарубежные сериалы и Русские сериалы 2013, 2014, 2015 годов. Оставайтесь с нами, качайте любимые фильмы, игры, сериалы, книги и музыку.
cron