img image001 image001 image001 image001 image001 image001 image001 image001 image001 image001 image001 image001 image001 image001 image001

Planets Sun Sun Sun
Статистика раздачи
Автор: Nickolas3434 | Размер: 641.34 МБ | Добавлен: 26 мар 2014
Раздают: 593    Качают: 25
Скачать торрент
Скачать торрент
Описание торрента

СообщениеДобавлено: 26 мар 2014 


Информация
Название: Территория заблуждений с Игорем Прокопенко
Год выпуска: 2014
Жанр: Документальный
Ведущий: Игорь Прокопенко


Описание:
Каждый день приносит научные сенсации, которые противоречат нашим привычным знаниям. Невероятные находки археологов опровергают учебники истории. Новейшие открытия астрономов начисто ломают знания о жизни Вселенной. А последние исследования медиков - рушат, казалось бы, незыблемые истины даже о жизни и смерти. В результате даже ученые все чаще приходят к неутешительному выводу - знания, накопленные человечеством на сегодняшний день - не более, чем территория заблуждений.


Продолжительность: 00:46:16
Выпущено: РЕН-ТВ
Перевод: Не требуется
Язык: Русский
Автор рипа: Ponomarev1997
Файл
Формат: AVI
Качество: SATRip
Видео: XviD, 1801 kb/s, 720 х 400
Аудио: MP3, 2 ch, 128 Кбит/с

Формат : AVI
Формат/Информация : Audio Video Interleave
Размер файла : 641 Мбайт
Продолжительность : 46 м.
Общий поток : 1937 Кбит/сек
Библиотека кодирования : VirtualDub build 32706/release
Видео
Идентификатор : 0
Формат : MPEG-4 Visual
Профиль формата : Advanced Simple@L5
Параметр BVOP формата : 2
Параметр QPel формата : Нет
Параметр GMC формата : Без точки перехода
Параметр матрицы формата : Default (MPEG)
Идентификатор кодека : XVID
Идентификатор кодека/Подсказка : XviD
Продолжительность : 46 м.
Битрейт : 1800 Кбит/сек
Ширина : 720 пикселей
Высота : 400 пикселей
Соотношение сторон : 16:9
Частота кадров : 25,000 кадров/сек
Цветовое пространство : YUV
Субдискретизация насыщенности : 4:2:0
Битовая глубина : 8 бит
Тип развёртки : Прогрессивная
Метод сжатия : С потерями
Бит/(Пиксели*Кадры) : 0.250
Размер потока : 596 Мбайт (93%)
Библиотека кодирования : XviD 1.2.1 (UTC 2008-12-04)
Аудио
Идентификатор : 1
Формат : MPEG Audio
Версия формата : Version 1
Профиль формата : Layer 3
Режим : Joint stereo
Расширение режима : MS Stereo
Идентификатор кодека : 55
Идентификатор кодека/Подсказка : MP3
Продолжительность : 46 м.
Вид битрейта : Постоянный
Битрейт : 128 Кбит/сек
Каналы : 2 канала
Частота : 48,0 КГц
Метод сжатия : С потерями
Размер потока : 42,4 Мбайт (7%)
Выравнивание : Разделение по промежуткам
Продолжительность промежутка : 40 мс. (1,00 видеокадр)
Время предзагрузки промежутка : 500 мс.








   Похожие торренты   Торрент   Размер 
В этой теме нет новых непрочитанных сообщений. Территория заблуждений с Игорем Прокопенко [08.04] (2014) SATRip

571 | 35

564.66 МБ

В этой теме нет новых непрочитанных сообщений. Территория заблуждений с Игорем Прокопенко (2014.10.11) SATRip

360 | 66

1.19 ГБ

В этой теме нет новых непрочитанных сообщений. Территория заблуждений с Игорем Прокопенко [Эфир от 29.01] (2013) SATRip

6 | 29

1.09 ГБ

В этой теме нет новых непрочитанных сообщений. Территория заблуждений с Игорем Прокопенко [эфир от 28.05] (2013) SATRip

12 | 15

1.04 ГБ

В этой теме нет новых непрочитанных сообщений. Территория заблуждений с Игорем Прокопенко [эфир от 19.11] (2013) SATRip

15 | 12

1.16 ГБ

В этой теме нет новых непрочитанных сообщений. Территория заблуждений с Игорем Прокопенко [01-27] (2012-2013) SATRip

209 | 93

28.7 ГБ

В этой теме нет новых непрочитанных сообщений. Территория заблуждений с Игорем Прокопенко [эфир от 19.02] (2013) SATRip

8 | 9

1.05 ГБ




Вы не можете начинать темы
Вы не можете отвечать на сообщения
Вы не можете редактировать свои сообщения
Вы не можете удалять свои сообщения
Вы не можете добавлять вложения

Перейти:  
Для Мосгорсуда, Роскомнадзора и рекламодателей: mosgorsud-torrent[собачка]yandex.ru
 Вход
ppkBB3cker v.2 © 2008-2014 @ PPK
[ Time : 0.028s | 14 Queries | GZIP : Off ]

Торрент трекер RUTOR.IN, Не можете зайти на rutor.org? Какой новый адрес рутор? Какое зеркало рутор? Не работает rutor.org и зеркала? Тогда наш торрент специально для вас. Rutor.in неофициальное зеркало rutor. В случае если у Вас заблокирован rutor или вдруг Вы не можете на него зайти, то Вы без труда сможете скачать бесплатно и без рекламы последние новинки кино, игр, сериалов и прочего у нас, на Rutor.in. Не нужно использовать прокси, чтобы зайти на рутор, достаточно воспользоваться нашим ресурсом. Все новые фильмы, игры, сериалы, книги и музыка за 2013 и 2014 годы через торрент бесплатно. Скачивайте фильмы в хорошем качестве, игры для пк, xbox, playstation без регистрации. У нас вы найдете новые Зарубежные сериалы и Русские сериалы 2013, 2014, 2015 годов. Оставайтесь с нами, качайте любимые фильмы, игры, сериалы, книги и музыку.