img image001 image001 image001 image001 image001 image001 image001 image001 image001 image001 image001 image001 image001 image001 image001 image001

Planets Sun Sun Sun
Статистика раздачи
Автор: Nickolas3434 | Размер: 301.2 МБ | Добавлен: 26 мар 2014
Раздают: 231    Качают: 20
Скачать торрент
Скачать торрент
Описание торрента

СообщениеДобавлено: 26 мар 2014 


Описание
Название: Специальный репортаж. Профессия - вор
Год выпуска: 2014
Жанр: Документальный


О фильме:
В 2013 году только в Москве за карманные кражи было привлечено к ответственности более 600 человек. Этот вид преступлений остаётся одним из самых распространённых, особенно в городах. В специальном репортаже рассказано об известных "щипачах", о криминальном мастерстве которых ходили легенды, о современных карманниках, а также о тех, кто их ловит.


Продолжительность: 00:25:45
Выпущено: ДИП "ТВ Центр"
Язык: Русский
Файл
Формат: AVI
Качество: SATRip (XviD)
Видео: XviD, ~1497 Кбит/сек, 704 x 400
Аудио: MP3, 2ch., 128 kb/s

Общее
Полное имя : K:utorrentSpecialjnyj.reportaj.Professija.vor.2014.SATRip.avi
Формат : AVI
Формат/Информация : Audio Video Interleave
Размер файла : 301 Мбайт
Продолжительность : 25 м.
Общий поток : 1635 Кбит/сек
Программа кодирования : VirtualDubMod 1.5.10.3 | www.virtualdub-fr.org || (build 2550/release)
Библиотека кодирования : VirtualDubMod build 2550/release
Видео
Идентификатор : 0
Формат : MPEG-4 Visual
Профиль формата : Advanced Simple@L5
Параметр BVOP формата : 2
Параметр QPel формата : Нет
Параметр GMC формата : Без точки перехода
Параметр матрицы формата : Default (MPEG)
Идентификатор кодека : XVID
Идентификатор кодека/Подсказка : XviD
Продолжительность : 25 м.
Битрейт : 1497 Кбит/сек
Ширина : 704 пикселя
Высота : 400 пикселей
Соотношение сторон : 16:9
Частота кадров : 25,000 кадров/сек
Цветовое пространство : YUV
Субдискретизация насыщенности : 4:2:0
Битовая глубина : 8 бит
Тип развёртки : Прогрессивная
Метод сжатия : С потерями
Бит/(Пиксели*Кадры) : 0.213
Размер потока : 276 Мбайт (92%)
Библиотека кодирования : XviD 1.2.1 (UTC 2008-12-04)
Аудио
Идентификатор : 1
Формат : MPEG Audio
Версия формата : Version 1
Профиль формата : Layer 3
Идентификатор кодека : 55
Идентификатор кодека/Подсказка : MP3
Продолжительность : 25 м.
Вид битрейта : Постоянный
Битрейт : 128 Кбит/сек
Каналы : 2 канала
Частота : 48,0 КГц
Метод сжатия : С потерями
Размер потока : 23,6 Мбайт (8%)
Выравнивание : Соединение по промежуткам
Продолжительность промежутка : 40 мс. (1,00 видеокадр)
Время предзагрузки промежутка : 504 мс.
Библиотека кодирования : LAME3.99r
Настройки программы : -m s -V 4 -q 2 -lowpass 17 -b 128








   Похожие торренты   Торрент   Размер 
В этой теме нет новых непрочитанных сообщений. Специальный репортаж. Война за газ (Звезда) [2019, документальный, репортаж, хроника, SATRip]

1 | 1

215.23 МБ

В этой теме нет новых непрочитанных сообщений. Специальный репортаж. Король и шут (Звезда) [2019, документальный, репортаж, хроника, SATRip]

0 | 0

212.96 МБ

В этой теме нет новых непрочитанных сообщений. Специальный репортаж. США и три поросенка (Звезда) [2019, документальный, репортаж, хроника, SATRip]

7 | 1

231.18 МБ

В этой теме нет новых непрочитанных сообщений. Специальный репортаж. Щит и меч Отечества (Звезда) [2019, документальный, репортаж, хроника, SATRip]

7 | 0

192.63 МБ

В этой теме нет новых непрочитанных сообщений. Специальный репортаж. Герои вчерашнего дна (Звезда) [2019, документальный, репортаж, хроника, SATRip]

4 | 1

217.26 МБ

В этой теме нет новых непрочитанных сообщений. Специальный репортаж. Борьба за срок (Звезда) [2019, документальный, репортаж, хроника, SATRip]

1 | 0

248.03 МБ

В этой теме нет новых непрочитанных сообщений. Специальный репортаж. Спецоперация «Спасение» (Звезда) [2019, документальный, репортаж, хроника, SATRip]

1 | 1

240.21 МБ




Вы не можете начинать темы
Вы не можете отвечать на сообщения
Вы не можете редактировать свои сообщения
Вы не можете удалять свои сообщения
Вы не можете добавлять вложения

Перейти:  
 Вход
ppkBB3cker v.2 © 2008-2014 @ PPK
[ Time : 0.036s | 17 Queries | GZIP : Off ]

cron