img image001 image001 image001 image001 image001 image001 image001 image001 image001 image001 image001 image001 image001 image001 image001

Planets Sun Sun Sun
Статистика раздачи
Автор: Nickolas3434 | Размер: 6.15 ГБ | Добавлен: 29 мар 2014
Раздают: 81    Качают: 39
Скачать торрент
Скачать торрент
Описание торрента

СообщениеДобавлено: 29 мар 2014 




Информация о фильме
Название: Топ Гир / Top Gear
Год выпуска: 2014
Жанр: Телепередача
Режиссеры: Фил Черчворд, Брайан Клейн, Конрад Бегг, Найджел Симпкисс, Бен Дункан
Ведущие: Джереми Кларксон, Ричард Хаммонд, Джеймс Мэй, Стиг


Описание:
Top Gear — популярная английская телепередача, посвящённая автомобилям. Первые выпуски передачи появились в 1977 году. Эта передача была просто пересказ журнала, в течение долгого времени формат передачи не менялся. Но в 2002 году, произошёл перезапуск цикла, и вместо сухого пересказа, появился современный «Top Gear», с юмором, приколами и фирменными тестами. Аудитория программ в странах официальной трансляции составляет около 350 миллионов человек...



Продолжительность: 07 x ~ 01:02:00
Выпущено: BBC
Перевод: Профессиональный многоголосый закадровый [AlexFilm]
Роли озвучивали: Роман Сопко, Константин Погодаев, Александр Дасевич
Перевод: Полина Суворова, Константин Кривоногов
Файл
Формат: AVI
Качество: HDTVRip
Видео: 720x400 (16:9), 25 fps, XviD ~1754 kbps, ~0.244 bit/pixe
Аудио: Аудио Rus: 48 kHz, MPEG Layer 3, 2 ch, 128 kbps CBR; Аудио Eng: 48 kHz, MPEG Layer 3, 2 ch, 128 kbps CBR

Общее
Top.Gear.s21e07.Burma.Special.Part.2.HDTVRip.Rus.Eng.AlexFilm.avi
Формат : AVI
Формат/Информация : Audio Video Interleave
Размер файла : 899 Мбайт
Продолжительность : 1 ч. 2 м.
Общий поток : 2013 Кбит/сек
Название фильма : Top Gear 21x07 Burma Special, Part 2 @ AlexFilm
Программа кодирования : VirtualDubModRus 1.5.10.2 (build 2542/release)
Библиотека кодирования : VirtualDubMod build 2542/release
Видео
Идентификатор : 0
Формат : MPEG-4 Visual
Профиль формата : Advanced Simple@L5
Параметр BVOP формата : 1
Параметр QPel формата : Нет
Параметр GMC формата : Без точки перехода
Параметр матрицы формата : Default (MPEG)
Идентификатор кодека : XVID
Идентификатор кодека/Подсказка : XviD
Продолжительность : 1 ч. 2 м.
Битрейт : 1742 Кбит/сек
Ширина : 720 пикселей
Высота : 400 пикселей
Соотношение сторон : 16:9
Частота кадров : 25,000 кадров/сек
Цветовое пространство : YUV
Субдискретизация насыщенности : 4:2:0
Битовая глубина : 8 бит
Тип развёртки : Прогрессивная
Метод сжатия : С потерями
Бит/(Пиксели*Кадры) : 0.242
Размер потока : 778 Мбайт (87%)
Библиотека кодирования : XviD 1.2.1 (UTC 2008-12-04)
Аудио #1
Идентификатор : 1
Формат : MPEG Audio
Версия формата : Version 1
Профиль формата : Layer 3
Режим : Joint stereo
Идентификатор кодека : 55
Идентификатор кодека/Подсказка : MP3
Продолжительность : 1 ч. 2 м.
Вид битрейта : Постоянный
Битрейт : 128 Кбит/сек
Каналы : 2 канала
Частота : 48,0 КГц
Метод сжатия : С потерями
Размер потока : 57,2 Мбайт (6%)
Выравнивание : Соединение по промежуткам
Продолжительность промежутка : 40 мс. (1,00 видеокадр)
Время предзагрузки промежутка : 504 мс.
Аудио #2
Идентификатор : 2
Формат : MPEG Audio
Версия формата : Version 1
Профиль формата : Layer 3
Режим : Joint stereo
Идентификатор кодека : 55
Идентификатор кодека/Подсказка : MP3
Продолжительность : 1 ч. 2 м.
Вид битрейта : Постоянный
Битрейт : 128 Кбит/сек
Каналы : 2 канала
Частота : 48,0 КГц
Метод сжатия : С потерями
Размер потока : 57,2 Мбайт (6%)
Выравнивание : Соединение по промежуткам
Продолжительность промежутка : 40 мс. (1,00 видеокадр)
Время предзагрузки промежутка : 504 мс.






   Похожие торренты   Торрент   Размер 
В этой теме нет новых непрочитанных сообщений. Топ Гир: Спецвыпуск в Патагонии (1-2 части) / Top Gear: Top Gear: Patagonia Special (part 1-2) [02x02] (2014) HDTV 1080i от AlexFilm

2251 | 528

6.22 ГБ

В этой теме нет новых непрочитанных сообщений. Топ Гир / Top Gear [S21] (2014) HDTVRip | AlexFilm, IdeaFilm

157 | 85

4.6 ГБ

В этой теме нет новых непрочитанных сообщений. Топ Гир / Top Gear [21x01-02] (2014) HDTVRip | AlexFilm, IdeaFilm

0 | 71

1.28 ГБ

В этой теме нет новых непрочитанных сообщений. Топ Гир / Top Gear [21x01-03] (2014) HDTVRip | AlexFilm, IdeaFilm

0 | 62

1.94 ГБ

В этой теме нет новых непрочитанных сообщений. Топ Гир / Top Gear [21x01] (2014) HDTVRip | AlexFilm, IdeaFilm

97 | 8

653.9 МБ

В этой теме нет новых непрочитанных сообщений. Топ Гир / Top Gear [21x01-04] (2014) HDTVRip | AlexFilm, IdeaFilm

30 | 22

2.58 ГБ

В этой теме нет новых непрочитанных сообщений. Топ Гир: от A до Z / Top Gear: From A to Z (01-02 из 02) (2015) HDTVRip | AlexFilm

535 | 135

1.48 ГБ




Вы не можете начинать темы
Вы не можете отвечать на сообщения
Вы не можете редактировать свои сообщения
Вы не можете удалять свои сообщения
Вы не можете добавлять вложения

Перейти:  
Для Мосгорсуда, Роскомнадзора и рекламодателей: mosgorsud-torrent[собачка]yandex.ru
 Вход
ppkBB3cker v.2 © 2008-2014 @ PPK
[ Time : 0.021s | 17 Queries | GZIP : Off ]

Торрент трекер RUTOR.IN, Не можете зайти на rutor.org? Какой новый адрес рутор? Какое зеркало рутор? Не работает rutor.org и зеркала? Тогда наш торрент специально для вас. Rutor.in неофициальное зеркало rutor. В случае если у Вас заблокирован rutor или вдруг Вы не можете на него зайти, то Вы без труда сможете скачать бесплатно и без рекламы последние новинки кино, игр, сериалов и прочего у нас, на Rutor.in. Не нужно использовать прокси, чтобы зайти на рутор, достаточно воспользоваться нашим ресурсом. Все новые фильмы, игры, сериалы, книги и музыка за 2013 и 2014 годы через торрент бесплатно. Скачивайте фильмы в хорошем качестве, игры для пк, xbox, playstation без регистрации. У нас вы найдете новые Зарубежные сериалы и Русские сериалы 2013, 2014, 2015 годов. Оставайтесь с нами, качайте любимые фильмы, игры, сериалы, книги и музыку.