img image001 image001 image001 image001 image001 image001 image001 image001 image001 image001 image001 image001 image001 image001 image001

Planets Sun Sun Sun
Статистика раздачи
Автор: Nickolas3434 | Размер: 24.08 ГБ | Добавлен: 29 мар 2014
Раздают: 34    Качают: 39
Скачать торрент
Скачать торрент
Описание торрента

СообщениеДобавлено: 29 мар 2014 




Информация о фильме
Название: Топ Гир / Top Gear
Год выпуска: 2014
Жанр: Телепередача
Режиссеры: Фил Черчворд, Брайан Клейн, Конрад Бегг, Найджел Симпкисс, Бен Дункан
Ведущие: Джереми Кларксон, Ричард Хаммонд, Джеймс Мэй, Стиг


Описание:
Top Gear — популярная английская телепередача, посвящённая автомобилям. Первые выпуски передачи появились в 1977 году. Эта передача была просто пересказ журнала, в течение долгого времени формат передачи не менялся. Но в 2002 году, произошёл перезапуск цикла, и вместо сухого пересказа, появился современный «Top Gear», с юмором, приколами и фирменными тестами. Аудитория программ в странах официальной трансляции составляет около 350 миллионов человек...



Продолжительность: 07 х ~ 01:00:00
Выпущено: BBC
Перевод: Профессиональный многоголосый закадровый [Gears Media, AlexFilm]
Файл
Формат: TS
Качество: HDTV 1080i
Видео: MPEG-4 AVC, ~ 7000 Кбит/с, 1920x1080
Аудио: Русский, английский (AC3, 2 ch, 192 Кбит/с)

Полное имя : E:Top.Gear.S21E01.HDTV.1080i.by.AKTEP.ts
Формат : MPEG-TS
Размер файла : 3,29 Гбайт
Продолжительность : 1 ч. 2 м.
Режим общего битрейта : Переменный
Общий поток : 7586 Кбит/сек
Максимальный общий битрейт : 35,5 Мбит/сек
Видео
Идентификатор : 4113 (0x1011)
Идентификатор меню : 1 (0x1)
Формат : AVC
Формат/Информация : Advanced Video Codec
Профиль формата : High@L4.0
Параметр CABAC формата : Да
Параметр ReFrames формата : 4 кадра
Идентификатор кодека : 27
Продолжительность : 1 ч. 1 м.
Вид битрейта : Переменный
Битрейт : 6630 Кбит/сек
Максимальный битрейт : 40,0 Мбит/сек
Ширина : 1920 пикселей
Высота : 1080 пикселей
Соотношение сторон : 16:9
Частота кадров : 25,000 кадров/сек
Стандарт вещания : Component
Цветовое пространство : YUV
Субдискретизация насыщенности : 4:2:0
Битовая глубина : 8 бит
Тип развёртки : MBAFF
Бит/(Пиксели*Кадры) : 0.128
Размер потока : 2,87 Гбайт (87%)
Язык : English
Основные цвета : BT.709
Характеристики трансфера : BT.709
Коэффициенты матрицы : BT.709
Аудио #1
Идентификатор : 4352 (0x1100)
Идентификатор меню : 1 (0x1)
Формат : AC-3
Формат/Информация : Audio Coding 3
Расширение режима : CM (complete main)
Параметр Endianness формата : Big
Идентификатор кодека : 129
Продолжительность : 1 ч. 2 м.
Вид битрейта : Постоянный
Битрейт : 192 Кбит/сек
Каналы : 2 канала
Расположение каналов : Front: L R
Частота : 48,0 КГц
Битовая глубина : 16 бит
Метод сжатия : С потерями
Размер потока : 85,2 Мбайт (3%)
Язык : Russian
Аудио #2
Идентификатор : 4353 (0x1101)
Идентификатор меню : 1 (0x1)
Формат : AC-3
Формат/Информация : Audio Coding 3
Расширение режима : CM (complete main)
Параметр Endianness формата : Big
Идентификатор кодека : 129
Продолжительность : 1 ч. 1 м.
Вид битрейта : Постоянный
Битрейт : 192 Кбит/сек
Каналы : 2 канала
Расположение каналов : Front: L R
Частота : 48,0 КГц
Битовая глубина : 16 бит
Метод сжатия : С потерями
Размер потока : 85,1 Мбайт (3%)
Язык : Russian
Аудио #3
Идентификатор : 4354 (0x1102)
Идентификатор меню : 1 (0x1)
Формат : AC-3
Формат/Информация : Audio Coding 3
Расширение режима : CM (complete main)
Параметр Endianness формата : Big
Идентификатор кодека : 129
Продолжительность : 1 ч. 1 м.
Вид битрейта : Постоянный
Битрейт : 192 Кбит/сек
Каналы : 2 канала
Расположение каналов : Front: L R
Частота : 48,0 КГц
Битовая глубина : 16 бит
Метод сжатия : С потерями
Размер потока : 85,1 Мбайт (3%)
Язык : English
Текст
Идентификатор : 4608 (0x1200)
Идентификатор меню : 1 (0x1)
Формат : PGS
Идентификатор кодека : 144
Продолжительность : 1 ч. 1 м.
Задержка видео : 6 с. 0 мс.
Язык : Russian






   Похожие торренты   Торрент   Размер 
В этой теме нет новых непрочитанных сообщений. Топ Гир: Спецвыпуск в Патагонии (1-2 части) / Top Gear: Top Gear: Patagonia Special (part 1-2) [02x02] (2014) HDTV 1080i от AlexFilm

2228 | 521

6.22 ГБ

В этой теме нет новых непрочитанных сообщений. Топ Гир / Top Gear [S22] (2015) HDTVRip от Semak | AlexFilm, Gears Media, Jetvis Studio & RG.paravozik

356 | 280

6.01 ГБ

В этой теме нет новых непрочитанных сообщений. Топ Гир / Top Gear [22х01-06] (2015) HDTVRip от Semak |AlexFilm, Gears Media, Jetvis Studio & RG.paravozik

31 | 134

4.39 ГБ

В этой теме нет новых непрочитанных сообщений. Топ Гир / Top Gear [22х01-07] (2015) HDTVRip от Semak |AlexFilm, Gears Media, Jetvis Studio & RG.paravozik

165 | 179

5.14 ГБ

В этой теме нет новых непрочитанных сообщений. Топ Гир / Top Gear [S23] (2016) HDTV 720p | Gears Media

45 | 45

9.76 ГБ

В этой теме нет новых непрочитанных сообщений. Топ Гир / Top Gear [22х01-06 из 10] (2015) HDTV 720p | Gears Media

69 | 109

10.18 ГБ

В этой теме нет новых непрочитанных сообщений. Топ Гир / Top Gear [22х01-03 из 10] (2015) HDTV 720p | Gears Media

70 | 55

5.45 ГБ




Вы не можете начинать темы
Вы не можете отвечать на сообщения
Вы не можете редактировать свои сообщения
Вы не можете удалять свои сообщения
Вы не можете добавлять вложения

Перейти:  
Для Мосгорсуда, Роскомнадзора и рекламодателей: mosgorsud-torrent[собачка]yandex.ru
 Вход
ppkBB3cker v.2 © 2008-2014 @ PPK
[ Time : 0.043s | 14 Queries | GZIP : Off ]

Торрент трекер RUTOR.IN, Не можете зайти на rutor.org? Какой новый адрес рутор? Какое зеркало рутор? Не работает rutor.org и зеркала? Тогда наш торрент специально для вас. Rutor.in неофициальное зеркало rutor. В случае если у Вас заблокирован rutor или вдруг Вы не можете на него зайти, то Вы без труда сможете скачать бесплатно и без рекламы последние новинки кино, игр, сериалов и прочего у нас, на Rutor.in. Не нужно использовать прокси, чтобы зайти на рутор, достаточно воспользоваться нашим ресурсом. Все новые фильмы, игры, сериалы, книги и музыка за 2013 и 2014 годы через торрент бесплатно. Скачивайте фильмы в хорошем качестве, игры для пк, xbox, playstation без регистрации. У нас вы найдете новые Зарубежные сериалы и Русские сериалы 2013, 2014, 2015 годов. Оставайтесь с нами, качайте любимые фильмы, игры, сериалы, книги и музыку.