img image001 image001 image001 image001 image001 image001 image001 image001 image001 image001 image001 image001 image001 image001 image001

Planets Sun Sun Sun
Статистика раздачи
Автор: Nickolas3434 | Размер: 307.01 МБ | Добавлен: 29 мар 2014
Раздают: 89    Качают: 5
Скачать торрент
Скачать торрент
Описание торрента

СообщениеДобавлено: 29 мар 2014 


Информация
Название: Вечерний Ургант
Год выпуска: 2014
Жанр: ТВ-шоу
Ведущий: Иван Ургант


Описание:
Каждый вечер с понедельника по четверг за полчаса до полуночи Иван Ургант провожает этот день вместе с вами. С хорошим настроением, хорошей музыкой и теми людьми, которые ему интересны. "Вечерний Ургант" с понедельника по четверг.


Продолжительность: ~ 00:26:12
Выпущено:
Перевод: Не требуется
Язык: Русский
Автор рипа: TRAY_MAX
Файл
Формат: AVI
Качество: SATRip
Видео: DivX, ~1500 kb/s, 720 x 448
Аудио: MP3, 2 ch, 128 Кбит/с

Формат : AVI
Формат/Информация : Audio Video Interleave
Размер файла : 307 Мбайт
Продолжительность : 26 м.
Общий поток : 1638 Кбит/сек
Видео
Идентификатор : 0
Формат : MPEG-4 Visual
Параметр BVOP формата : 1
Параметр QPel формата : Нет
Параметр GMC формата : Без точки перехода
Параметр матрицы формата : Default (H.263)
Режим смешивания : Сжатый битовый поток
Идентификатор кодека : DX50
Идентификатор кодека/Подсказка : DivX 5
Продолжительность : 26 м.
Битрейт : 1501 Кбит/сек
Ширина : 720 пикселей
Высота : 448 пикселей
Соотношение сторон : 1,607
Частота кадров : 25,000 кадров/сек
Цветовое пространство : YUV
Субдискретизация насыщенности : 4:2:0
Битовая глубина : 8 бит
Тип развёртки : Прогрессивная
Метод сжатия : С потерями
Бит/(Пиксели*Кадры) : 0.186
Размер потока : 281 Мбайт (92%)
Заголовок : Video
Библиотека кодирования : DivX 3013
Аудио
Идентификатор : 1
Формат : MPEG Audio
Версия формата : Version 1
Профиль формата : Layer 3
Идентификатор кодека : 55
Идентификатор кодека/Подсказка : MP3
Продолжительность : 26 м.
Вид битрейта : Постоянный
Битрейт : 128 Кбит/сек
Каналы : 2 канала
Частота : 48,0 КГц
Метод сжатия : С потерями
Размер потока : 24,0 Мбайт (8%)
Выравнивание : Разделение по промежуткам
Продолжительность промежутка : 40 мс. (1,00 видеокадр)
Время предзагрузки промежутка : 500 мс.
Заголовок : Audio








   Похожие торренты   Торрент   Размер 
В этой теме нет новых непрочитанных сообщений. Вечерний Ургант [21.03] (2014) SATRip

39 | 7

534.38 МБ

В этой теме нет новых непрочитанных сообщений. Вечерний Ургант [01.04] (2014) SATRip

142 | 38

385.07 МБ

В этой теме нет новых непрочитанных сообщений. Вечерний Ургант [24.03] (2014) SATRip

50 | 25

374.24 МБ

В этой теме нет новых непрочитанных сообщений. Вечерний Ургант [06x11] [19.09] (2014) SATRip

54 | 6

592.42 МБ

В этой теме нет новых непрочитанных сообщений. Вечерний Ургант [06x30] [20.10] (2014) SATRip

24 | 3

371.98 МБ

В этой теме нет новых непрочитанных сообщений. Вечерний Ургант [06x16] [26.09] (2014) SATRip

41 | 5

654.39 МБ

В этой теме нет новых непрочитанных сообщений. Вечерний Ургант [Андрей Смоляков] (2014) SATRip от ExKinoRay

24 | 2

394.08 МБ




Вы не можете начинать темы
Вы не можете отвечать на сообщения
Вы не можете редактировать свои сообщения
Вы не можете удалять свои сообщения
Вы не можете добавлять вложения

Перейти:  
Для Мосгорсуда, Роскомнадзора и рекламодателей: mosgorsud-torrent[собачка]yandex.ru
 Вход
ppkBB3cker v.2 © 2008-2014 @ PPK
[ Time : 0.022s | 16 Queries | GZIP : Off ]

Торрент трекер RUTOR.IN, Не можете зайти на rutor.org? Какой новый адрес рутор? Какое зеркало рутор? Не работает rutor.org и зеркала? Тогда наш торрент специально для вас. Rutor.in неофициальное зеркало rutor. В случае если у Вас заблокирован rutor или вдруг Вы не можете на него зайти, то Вы без труда сможете скачать бесплатно и без рекламы последние новинки кино, игр, сериалов и прочего у нас, на Rutor.in. Не нужно использовать прокси, чтобы зайти на рутор, достаточно воспользоваться нашим ресурсом. Все новые фильмы, игры, сериалы, книги и музыка за 2013 и 2014 годы через торрент бесплатно. Скачивайте фильмы в хорошем качестве, игры для пк, xbox, playstation без регистрации. У нас вы найдете новые Зарубежные сериалы и Русские сериалы 2013, 2014, 2015 годов. Оставайтесь с нами, качайте любимые фильмы, игры, сериалы, книги и музыку.