img image001 image001 image001 image001 image001 image001 image001 image001 image001 image001 image001 image001 image001 image001 image001 image001

Planets Sun Sun Sun
Статистика раздачи
Автор: Nickolas3434 | Размер: 3.4 ГБ | Добавлен: 29 мар 2014
Раздают: 59    Качают: 20
Скачать торрент
Скачать торрент
Описание торрента

СообщениеДобавлено: 29 мар 2014 


Описание:
Название: Голос. Дети
Год выпуска: 2014
Жанр: Вокальное шоу, музыкальный конкурс, концерт
Ведущий: Дмитрий Нагиев


О фильме:
Первый канал представляет премьеру музыкального проекта "Голос. Дети". С одной стороны, почти ничего нового. С другой, меняется практически все. Новый конкурсный проект строится по тем же принципам, что и нашумевший взрослый. Из тысяч заявок на участие, присланных в адрес Первого канала, музыкальная редакция отобрала несколько сотен самых достойных. В ходе предварительных кастингов было допущено к участию в слепых прослушиваниях 100 человек. Дальше – известно: "слепые", "поединки" и финал. Но! Речь идет о детях. В проекте участвуют исполнители в возрасте от 7 до 14 лет. Народ очень специфический, особенно с учетом весьма высоких требований к вокальным данным, которые существуют на "Голосе". С учетом жестких правил отсева и физических нагрузок, с которыми было так тяжело примириться даже взрослым участникам.

Поэтому создатели шоу пошли на нововведения. Дети требуют к себе больше внимания, они гораздо более ранимы, чем взрослые. Поэтому в пару к ведущему Дмитрию Нагиеву добавилась со-ведущая Наталья Водянова, чья основная функция – готовить юные дарования к выходу на сцену, помогать им справиться со стрессом. Дети гораздо болезненнее реагируют на неудачи. Поэтому в "поединках" выступают не дуэты, а трио – выигрывают один, проигрывают двое. Неудача воспринимается легче, если переносится не в одиночестве.
Наставников трое. Это ветераны "Голоса" Пелагея и Дима Билан, а также "новичок" - Максим Фадеев. Во время слепых прослушиваний наставники набирают себе команды, в каждой из которых будет по 15 человек. Затем в ходе поединков в командах остается лишь по 2 сильнейших вокалиста. Шесть человек выходят в финал, который демонстрируется в прямом эфире и в котором зрительское голосование определяет 1 победителя.



Продолжительность: ~ 01:46:57
Выпущено: Россия, Первый канал, Красный квадрат, Talpa Productions
Язык: Русский
Автор рипа: -=DeMoH=-
Файл
Формат: TS
Качество: HDTV 1080i
Видео: AVC, 1920x1080, ~3938 kb/s
Аудио: AC-3, 6ch., 384 kb/s

Формат : MPEG-TS
Размер файла : 3,40 Гбайт
Продолжительность : 1 ч. 46 м.
Общий поток : 4551 Кбит/сек
Видео
Идентификатор : 845 (0x34D)
Идентификатор меню : 1 (0x1)
Формат : AVC
Формат/Информация : Advanced Video Codec
Профиль формата : High@L4.0
Параметр CABAC формата : Да
Параметр ReFrames формата : 4 кадра
Идентификатор кодека : 27
Продолжительность : 1 ч. 46 м.
Битрейт : 3938 Кбит/сек
Ширина : 1920 пикселей
Высота : 1080 пикселей
Соотношение сторон : 16:9
Частота кадров : 25,000 кадров/сек
Цветовое пространство : YUV
Субдискретизация насыщенности : 4:2:0
Битовая глубина : 8 бит
Тип развёртки : Чересстрочная
Порядок развёртки : Верхнее поле первое
Бит/(Пиксели*Кадры) : 0.076
Размер потока : 2,94 Гбайт (87%)
Основные цвета : BT.709-5, BT.1361, IEC 61966-2-4, SMPTE RP177
Характеристики трансфера : BT.709-5, BT.1361
Коэффициенты матрицы : BT.709-5, BT.1361, IEC 61966-2-4 709, SMPTE RP177
Аудио
Идентификатор : 985 (0x3D9)
Идентификатор меню : 1 (0x1)
Формат : AC-3
Формат/Информация : Audio Coding 3
Расширение режима : CM (complete main)
Идентификатор кодека : 6
Продолжительность : 1 ч. 46 м.
Вид битрейта : Постоянный
Битрейт : 384 Кбит/сек
Каналы : 6 каналов
Расположение каналов : Front: L C R, Side: L R, LFE
Частота : 48,0 КГц
Битовая глубина : 16 бит
Метод сжатия : С потерями
Размер потока : 294 Мбайт (8%)
Язык : English






   Похожие торренты   Торрент   Размер 
В этой теме нет новых непрочитанных сообщений. Голос. Дети [Выпуск 04] (2014) HDTV 1080i

66 | 40

3.25 ГБ

В этой теме нет новых непрочитанных сообщений. Голос. Дети [Выпуск 03] (2014) HDTV 1080i | RiperAM

104 | 21

3.03 ГБ

В этой теме нет новых непрочитанных сообщений. Голос. Дети [06] (2014) HDTV (1080i)

629 | 100

3.12 ГБ

В этой теме нет новых непрочитанных сообщений. Голос. Дети [Выпуски 01-09] (2014) HDTV 1080i

23 | 68

35.98 ГБ

В этой теме нет новых непрочитанных сообщений. Голос. Дети [Выпуски 01-08] (2014) HDTV 1080i

0 | 73

26.12 ГБ

В этой теме нет новых непрочитанных сообщений. Голос. Дети [03х01] (2016) HDTV 1080i от GeneralFilm

118 | 6

6.14 ГБ

В этой теме нет новых непрочитанных сообщений. Голос. Дети [03х01] (2016) HDTV 1080i от GeneralFilm

144 | 204

11.89 ГБ




Вы не можете начинать темы
Вы не можете отвечать на сообщения
Вы не можете редактировать свои сообщения
Вы не можете удалять свои сообщения
Вы не можете добавлять вложения

Перейти:  
 Вход
ppkBB3cker v.2 © 2008-2014 @ PPK
[ Time : 0.021s | 15 Queries | GZIP : Off ]

cron