img image001 image001 image001 image001 image001 image001 image001 image001 image001 image001 image001 image001 image001 image001 image001

Planets Sun Sun Sun
Статистика раздачи
Автор: Nickolas3434 | Размер: 559.06 МБ | Добавлен: 29 мар 2014
Раздают: 236    Качают: 24
Скачать торрент
Скачать торрент
Описание торрента

СообщениеДобавлено: 29 мар 2014 


Информация
Название: Крымские истории. Тайна Золотой Колыбели
Год выпуска: 2014
Жанр: Телепередача


Описание:
Крым. Вот уже месяц это слово не сходит с новостных лент. Спецслужбы всего мира ведут настоящую войну за полуостров. Что на самом деле представляет из себя эта земля. Колыбель высокоразвитой цивилизации? Последний форпост Атлантиды? Место где хранится Святой Грааль? Документальное расследование РЕН-ТВ - Крымские истории.


Продолжительность: 00:47:52
Выпущено:
Перевод: Не требуется
Язык: Русский
Автор рипа: Просто_Крол
Файл
Формат: AVI
Качество: SATRip
Видео: XviD, ~1500 kb/s, 720 x 400
Аудио: MP3, 2 ch, 128 Кбит/с

Формат : AVI
Формат/Информация : Audio Video Interleave
Размер файла : 559 Мбайт
Продолжительность : 47 м.
Общий поток : 1633 Кбит/сек
Программа кодирования : VirtualDubMod 1.5.10.2 (build 2540/release)
Библиотека кодирования : VirtualDub build 34703/release
Видео
Идентификатор : 0
Формат : MPEG-4 Visual
Профиль формата : Advanced Simple@L5
Параметр BVOP формата : 2
Параметр QPel формата : Нет
Параметр GMC формата : Без точки перехода
Параметр матрицы формата : Default (MPEG)
Режим смешивания : Сжатый битовый поток
Идентификатор кодека : XVID
Идентификатор кодека/Подсказка : XviD
Продолжительность : 47 м.
Битрейт : 1495 Кбит/сек
Ширина : 720 пикселей
Высота : 400 пикселей
Соотношение сторон : 16:9
Частота кадров : 25,000 кадров/сек
Цветовое пространство : YUV
Субдискретизация насыщенности : 4:2:0
Битовая глубина : 8 бит
Тип развёртки : Прогрессивная
Метод сжатия : С потерями
Бит/(Пиксели*Кадры) : 0.208
Размер потока : 512 Мбайт (92%)
Библиотека кодирования : XviD 64
Аудио
Идентификатор : 1
Формат : MPEG Audio
Версия формата : Version 1
Профиль формата : Layer 3
Режим : Joint stereo
Расширение режима : MS Stereo
Идентификатор кодека : 55
Идентификатор кодека/Подсказка : MP3
Продолжительность : 47 м.
Вид битрейта : Постоянный
Битрейт : 128 Кбит/сек
Каналы : 2 канала
Частота : 48,0 КГц
Метод сжатия : С потерями
Размер потока : 43,8 Мбайт (8%)
Выравнивание : Соединение по промежуткам
Продолжительность промежутка : 40 мс. (1,00 видеокадр)
Время предзагрузки промежутка : 504 мс.






   Похожие торренты   Торрент   Размер 
В этой теме нет новых непрочитанных сообщений. Крымские истории. По следам исчезнувших цивилизаций [30.03] (2014) SATRip

302 | 60

1.08 ГБ

В этой теме нет новых непрочитанных сообщений. Таврида. Легенда о золотой колыбели (2015) HDTVRip от Generalfilm

202 | 8

547.2 МБ

В этой теме нет новых непрочитанных сообщений. Таврида. Легенда о золотой колыбели (2015) HDTV (1080i) от Generalfilm

59 | 3

1.93 ГБ

В этой теме нет новых непрочитанных сообщений. Тайна золотой горы (1985) DVDRip от Кинорадиомагия

116 | 22

1.37 ГБ

В этой теме нет новых непрочитанных сообщений. Тизенгаузен В.Г. (обработано А. А. Ромаскевичем и С. Л. Волиным) - Сборник материалов, относящихся к истории Золотой Орды. Том II (1941) PDF

15 | 4

97.18 МБ

В этой теме нет новых непрочитанных сообщений. Темные истории: Эдгар Аллан По. Золотой жук / Dark Tales 4: Edgar Allan Poe's The Gold Bug CE (2013) PC

390 | 8

656.66 МБ

В этой теме нет новых непрочитанных сообщений. Загадки истории: Тайна святого Грааля (2010) DVB от tenow

5 | 2

1.13 ГБ




Вы не можете начинать темы
Вы не можете отвечать на сообщения
Вы не можете редактировать свои сообщения
Вы не можете удалять свои сообщения
Вы не можете добавлять вложения

Перейти:  
Для Мосгорсуда, Роскомнадзора и рекламодателей: mosgorsud-torrent[собачка]yandex.ru
 Вход
ppkBB3cker v.2 © 2008-2014 @ PPK
[ Time : 0.047s | 15 Queries | GZIP : Off ]

Торрент трекер RUTOR.IN, Не можете зайти на rutor.org? Какой новый адрес рутор? Какое зеркало рутор? Не работает rutor.org и зеркала? Тогда наш торрент специально для вас. Rutor.in неофициальное зеркало rutor. В случае если у Вас заблокирован rutor или вдруг Вы не можете на него зайти, то Вы без труда сможете скачать бесплатно и без рекламы последние новинки кино, игр, сериалов и прочего у нас, на Rutor.in. Не нужно использовать прокси, чтобы зайти на рутор, достаточно воспользоваться нашим ресурсом. Все новые фильмы, игры, сериалы, книги и музыка за 2013 и 2014 годы через торрент бесплатно. Скачивайте фильмы в хорошем качестве, игры для пк, xbox, playstation без регистрации. У нас вы найдете новые Зарубежные сериалы и Русские сериалы 2013, 2014, 2015 годов. Оставайтесь с нами, качайте любимые фильмы, игры, сериалы, книги и музыку.
cron