img image001 image001 image001 image001 image001 image001 image001 image001 image001 image001 image001 image001 image001 image001 image001

Planets Sun Sun Sun
Статистика раздачи
Автор: Nickolas3434 | Размер: 325.6 МБ | Добавлен: 29 мар 2014
Раздают: 122    Качают: 36
Скачать торрент
Скачать торрент
Описание торрента

СообщениеДобавлено: 29 мар 2014 


Информация
Название: ЧП. Расследование
Год выпуска: 2014
Жанр: Телепередача


Описание:
Задержанный в наручниках погиб от выстрелов в сердце.
Кто заказал Сашко Билого и кто исполнил этот заказ?
План ликвидации «Правого сектора»: кто будет следующим?
«Мавр сделал свое дело» — в программе «ЧП. Расследование».



Продолжительность: 00:23:29
Выпущено:
Перевод: Не требуется
Язык: Русский
Файл
Формат: AVI
Качество: SATRip
Видео: Xvid, ~1800 Кбит/сек, 720 x 448
Аудио: MP3, 2 ch, 128 Кбит/с

Общее
Полное имя : K:utorrentCHP.mavr.sdelal.svoe.delo.2014.03.28.SATRip.avi
Формат : AVI
Формат/Информация : Audio Video Interleave
Размер файла : 326 Мбайт
Продолжительность : 23 м.
Общий поток : 1938 Кбит/сек
Библиотека кодирования : VirtualDub build 32706/release
Видео
Идентификатор : 0
Формат : MPEG-4 Visual
Профиль формата : Advanced Simple@L5
Параметр BVOP формата : 2
Параметр QPel формата : Нет
Параметр GMC формата : Без точки перехода
Параметр матрицы формата : Default (MPEG)
Идентификатор кодека : XVID
Идентификатор кодека/Подсказка : XviD
Продолжительность : 23 м.
Битрейт : 1800 Кбит/сек
Ширина : 720 пикселей
Высота : 448 пикселей
Соотношение сторон : 16:10
Частота кадров : 25,000 кадров/сек
Цветовое пространство : YUV
Субдискретизация насыщенности : 4:2:0
Битовая глубина : 8 бит
Тип развёртки : Прогрессивная
Метод сжатия : С потерями
Бит/(Пиксели*Кадры) : 0.223
Размер потока : 302 Мбайт (93%)
Библиотека кодирования : XviD 1.2.1 (UTC 2008-12-04)
Аудио
Идентификатор : 1
Формат : MPEG Audio
Версия формата : Version 1
Профиль формата : Layer 3
Режим : Joint stereo
Идентификатор кодека : 55
Идентификатор кодека/Подсказка : MP3
Продолжительность : 23 м.
Вид битрейта : Постоянный
Битрейт : 128 Кбит/сек
Каналы : 2 канала
Частота : 48,0 КГц
Метод сжатия : С потерями
Размер потока : 21,5 Мбайт (7%)
Выравнивание : Разделение по промежуткам
Продолжительность промежутка : 40 мс. (1,00 видеокадр)
Время предзагрузки промежутка : 500 мс.






   Похожие торренты   Торрент   Размер 
В этой теме нет новых непрочитанных сообщений. Мавр сделал своё дело [01-03 из 04] (2016) SATRip-AVC от Files-x

11 | 0

1.93 ГБ

В этой теме нет новых непрочитанных сообщений. Мавр сделал своё дело [01-04 из 04] (2016) WEB-DLRip от Files-x

182 | 7

2.34 ГБ

В этой теме нет новых непрочитанных сообщений. Мавр сделал своё дело [01-04 из 04] (2016) WEB-DL 1080p от Files-x

24 | 0

3.51 ГБ

В этой теме нет новых непрочитанных сообщений. Мавр сделал своё дело [01-04 из 04] (2016) WEB-DLRip-AVC от Files-x

13 | 0

2.45 ГБ

В этой теме нет новых непрочитанных сообщений. ЧП. Расследование - Дело в кепке - 3 (2011) SATRip by xottabi4

0 | 8

205.61 МБ

В этой теме нет новых непрочитанных сообщений. ЧП. Расследование. Дело в кепке [эфир от 10.09] (2010) SATRip

22 | 3

249.83 МБ

В этой теме нет новых непрочитанных сообщений. ЧП. Расследование. Дело Свиридова [эфир от 29.10] (2011) SATRip от RiperAM

0 | 25

278.93 МБ




Вы не можете начинать темы
Вы не можете отвечать на сообщения
Вы не можете редактировать свои сообщения
Вы не можете удалять свои сообщения
Вы не можете добавлять вложения

Перейти:  
Для Мосгорсуда, Роскомнадзора и рекламодателей: mosgorsud-torrent[собачка]yandex.ru
 Вход
ppkBB3cker v.2 © 2008-2014 @ PPK
[ Time : 0.044s | 14 Queries | GZIP : Off ]

Торрент трекер RUTOR.IN, Не можете зайти на rutor.org? Какой новый адрес рутор? Какое зеркало рутор? Не работает rutor.org и зеркала? Тогда наш торрент специально для вас. Rutor.in неофициальное зеркало rutor. В случае если у Вас заблокирован rutor или вдруг Вы не можете на него зайти, то Вы без труда сможете скачать бесплатно и без рекламы последние новинки кино, игр, сериалов и прочего у нас, на Rutor.in. Не нужно использовать прокси, чтобы зайти на рутор, достаточно воспользоваться нашим ресурсом. Все новые фильмы, игры, сериалы, книги и музыка за 2013 и 2014 годы через торрент бесплатно. Скачивайте фильмы в хорошем качестве, игры для пк, xbox, playstation без регистрации. У нас вы найдете новые Зарубежные сериалы и Русские сериалы 2013, 2014, 2015 годов. Оставайтесь с нами, качайте любимые фильмы, игры, сериалы, книги и музыку.