img image001 image001 image001 image001 image001 image001 image001 image001 image001 image001 image001 image001 image001 image001 image001

Planets Sun Sun Sun
Статистика раздачи
Автор: Nickolas3434 | Размер: 4.43 ГБ | Добавлен: 30 мар 2014
Раздают: 213    Качают: 42
Скачать торрент
Скачать торрент
Описание торрента

СообщениеДобавлено: 30 мар 2014 


Шустер Live [Эфир 28-29.03.2014]

Год выпуска : 2014
Жанр : Политическое ток-шоу
Ведущие : Савик Шустер, Пётр Мага
Язык : Украинский, Русский
Продолжительность : 04:04:44
Описание: По пятницам на "Першому Національному", самое популярное общественно-политическое ток-шоу страны "Шустер LIVE".
Готовьтесь к обсуждениям самых ярких событий и самых болезненных вопросов, жарких дискуссий и борьбы противоположных мнений.
Реагируйте на события в политической жизни страны, на социальные проблемы и процесс становления демократии в стране.
Скажите свое слово и услышьте людей, которые влияют на жизнь страны и вашу жизнь.
Только нужная информация, только влиятельные гости, только основательная аналитика, только эксклюзивные подробности, только живое обсуждение - и только ты - главный судья для каждой мысли, которая прозвучит в студии.
По пятницам "Первый Национальный" дарит вам свободу общения в прямом эфире "Шустер LIVE".
Тема :Александр Лукашенко о ситуации в Крыму. Как спасти Украину от дефолта ? Чего хочет "Правый сектор"
Автор записи :Каддафи
Релиз от


General
Complete name : Шустер Live - 28.03.2014_DVB by Kaddafi.mpg
Format : MPEG-PS
File size : 4.43 GiB
Duration : 4h 4mn
Overall bit rate mode : Variable
Overall bit rate : 2 589 Kbps
Video #224
ID : 224 (0xE0)
Format : MPEG Video
Format version : Version 2
Format profile : Main@Main
Format settings, BVOP : Yes
Format settings, Matrix : Custom
Format settings, GOP : M=3, N=24
Duration : 4h 4mn
Bit rate mode : Variable
Bit rate : 2 409 Kbps
Maximum bit rate : 15.0 Mbps
Width : 720 pixels
Height : 576 pixels
Display aspect ratio : 4:3
Frame rate : 25.000 fps
Standard : PAL
Color space : YUV
Chroma subsampling : 4:2:0
Bit depth : 8 bits
Scan type : Interlaced
Scan order : Top Field First
Compression mode : Lossy
Bits/(Pixel*Frame) : 0.232
Stream size : 4.12 GiB (93%)
Audio #192
ID : 192 (0xC0)
Format : MPEG Audio
Format version : Version 1
Format profile : Layer 2
Duration : 4h 4mn
Bit rate mode : Constant
Bit rate : 128 Kbps
Channel(s) : 2 channels
Sampling rate : 48.0 KHz
Compression mode : Lossy
Stream size : 224 MiB (5%)
Качество видео:DVB
Формат видео:MPEG
Видео кодек:MPEG2
Аудио кодек:MPEG1
Видео:MPEG2 Video 720x576 (4:3) 25.00fps 2 409 Kbps, 0.232 bit/pixel
Аудио:MPEG Audio 48000Hz 2 channels 128 Kbps



   Похожие торренты   Торрент   Размер 
В этой теме нет новых непрочитанных сообщений. Шустер Live [Выпуски за декабрь: 2014 года] (2014) IPTVRip

5 | 66

15.39 ГБ

В этой теме нет новых непрочитанных сообщений. Александр Лукашенко: Интервью Президента Республики Беларусь программе Шустер LIVE (2014) DVBRip

384 | 96

684.84 МБ

В этой теме нет новых непрочитанных сообщений. Футбол. Отборочный матч. Чемпионат Мира 2014. Группа Н. Украина – Польша + Шустер LIVE (2013) IPTVRip

0 | 2

2.58 ГБ

В этой теме нет новых непрочитанных сообщений. Шустер Live (Выпуски за февраль) (2015) IPTVRip

5 | 18

9.56 ГБ

В этой теме нет новых непрочитанных сообщений. Шустер LIVE (Выпуски за февраль) (2015) IPTVRip

7 | 64

7.23 ГБ

В этой теме нет новых непрочитанных сообщений. Шустер LIVE (Выпуски за февраль) (2015) IPTVRip

370 | 5

1.95 ГБ

В этой теме нет новых непрочитанных сообщений. Шустер LIVE (Выпуски за февраль) (2015) IPTVRip

0 | 68

2.77 ГБ




Вы не можете начинать темы
Вы не можете отвечать на сообщения
Вы не можете редактировать свои сообщения
Вы не можете удалять свои сообщения
Вы не можете добавлять вложения

Перейти:  
Для Мосгорсуда, Роскомнадзора и рекламодателей: mosgorsud-torrent[собачка]yandex.ru
 Вход
ppkBB3cker v.2 © 2008-2014 @ PPK
[ Time : 0.041s | 14 Queries | GZIP : Off ]

Торрент трекер RUTOR.IN, Не можете зайти на rutor.org? Какой новый адрес рутор? Какое зеркало рутор? Не работает rutor.org и зеркала? Тогда наш торрент специально для вас. Rutor.in неофициальное зеркало rutor. В случае если у Вас заблокирован rutor или вдруг Вы не можете на него зайти, то Вы без труда сможете скачать бесплатно и без рекламы последние новинки кино, игр, сериалов и прочего у нас, на Rutor.in. Не нужно использовать прокси, чтобы зайти на рутор, достаточно воспользоваться нашим ресурсом. Все новые фильмы, игры, сериалы, книги и музыка за 2013 и 2014 годы через торрент бесплатно. Скачивайте фильмы в хорошем качестве, игры для пк, xbox, playstation без регистрации. У нас вы найдете новые Зарубежные сериалы и Русские сериалы 2013, 2014, 2015 годов. Оставайтесь с нами, качайте любимые фильмы, игры, сериалы, книги и музыку.