img image001 image001 image001 image001 image001 image001 image001 image001 image001 image001 image001 image001 image001 image001 image001

Planets Sun Sun Sun
Статистика раздачи
Автор: Nickolas3434 | Размер: 462.4 МБ | Добавлен: 30 мар 2014
Раздают: 133    Качают: 20
Скачать торрент
Скачать торрент
Описание торрента

СообщениеДобавлено: 30 мар 2014 


Информация о фильме
Название: Следствие вели... с Леонидом Каневским
Год выпуска: 2014
Жанр: Документальный
Ведущий: Леонид Каневский


Описание:
91-й год. В Царском Селе одна за другой гибнут учительницы. В жестоких убийствах подозревают загадочного обольстителя. Как он выбирал своих жертв и за что с ними расправлялся?


Продолжительность: 00:39:28
Выпущено:
Перевод: Не требуется
Файл
Формат: AVI
Качество: SATRip
Видео: XviD, ~1500 kb/s, 720x448
Аудио: MP3 1 канал, 128 kb/s

Общее
Полное имя : K:utorrentSledstvie.veli.(2014.03.29).SATRip.avi
Формат : AVI
Формат/Информация : Audio Video Interleave
Размер файла : 462 Мбайт
Продолжительность : 39 м.
Общий поток : 1638 Кбит/сек
Программа кодирования : VirtualDubMod 1.5.10.3 | (build 2550/release)
Библиотека кодирования : VirtualDubMod build 2550/release
Видео
Идентификатор : 0
Формат : MPEG-4 Visual
Профиль формата : Advanced Simple@L5
Параметр BVOP формата : 2
Параметр QPel формата : Нет
Параметр GMC формата : Без точки перехода
Параметр матрицы формата : Default (H.263)
Идентификатор кодека : XVID
Идентификатор кодека/Подсказка : XviD
Продолжительность : 39 м.
Битрейт : 1500 Кбит/сек
Ширина : 720 пикселей
Высота : 448 пикселей
Соотношение сторон : 16:10
Частота кадров : 25,000 кадров/сек
Цветовое пространство : YUV
Субдискретизация насыщенности : 4:2:0
Битовая глубина : 8 бит
Тип развёртки : Прогрессивная
Метод сжатия : С потерями
Бит/(Пиксели*Кадры) : 0.186
Размер потока : 424 Мбайт (92%)
Библиотека кодирования : XviD 1.2.1 (UTC 2008-12-04)
Аудио
Идентификатор : 1
Формат : MPEG Audio
Версия формата : Version 1
Профиль формата : Layer 3
Идентификатор кодека : 55
Идентификатор кодека/Подсказка : MP3
Продолжительность : 39 м.
Вид битрейта : Постоянный
Битрейт : 128 Кбит/сек
Каналы : 1 канал
Частота : 48,0 КГц
Метод сжатия : С потерями
Размер потока : 36,1 Мбайт (8%)
Выравнивание : Соединение по промежуткам
Продолжительность промежутка : 40 мс. (1,00 видеокадр)
Время предзагрузки промежутка : 504 мс.
Библиотека кодирования : LAME3.99r
Настройки программы : -m m -V 4 -q 2 -lowpass 20.5 -b 128






   Похожие торренты   Торрент   Размер 
В этой теме нет новых непрочитанных сообщений. Следствие вели... с Леонидом Каневским. Любовь зла [28.05] (2017) HDTVRip от GeneralFim

8 | 2

525.97 МБ

В этой теме нет новых непрочитанных сообщений. Следствие вели... с Леонидом Каневским. Колченогий [06.04] (2014) SATRip

373 | 46

458.86 МБ

В этой теме нет новых непрочитанных сообщений. Следствие вели... с Леонидом Каневским [258-290] (2014) SATRip от MediaClub | КПК

591 | 323

5.71 ГБ

В этой теме нет новых непрочитанных сообщений. Следствие вели... с Леонидом Каневским. Барин [22.03] (2014) SATRip

118 | 22

459.98 МБ

В этой теме нет новых непрочитанных сообщений. Следствие вели... с Леонидом Каневским. Порочная любовь [26.02] (2017) HDTVRip от GeneralFim

3 | 1

529.29 МБ

В этой теме нет новых непрочитанных сообщений. Следствие вели... с Леонидом Каневским. - Главный свидетель [21.09] (2014) SATRip

209 | 22

583.69 МБ

В этой теме нет новых непрочитанных сообщений. Следствие вели... с Леонидом Каневским. Отцовская любовь [Эфир от 09.04] (2016) HDTVRip от GeneralFilm

2 | 4

588.69 МБ




Вы не можете начинать темы
Вы не можете отвечать на сообщения
Вы не можете редактировать свои сообщения
Вы не можете удалять свои сообщения
Вы не можете добавлять вложения

Перейти:  
Для Мосгорсуда, Роскомнадзора и рекламодателей: mosgorsud-torrent[собачка]yandex.ru
 Вход
ppkBB3cker v.2 © 2008-2014 @ PPK
[ Time : 0.042s | 15 Queries | GZIP : Off ]

cron