img image001 image001 image001 image001 image001 image001 image001 image001 image001 image001 image001 image001 image001 image001 image001

Planets Sun Sun Sun
Статистика раздачи
Автор: Nickolas3434 | Размер: 409.84 МБ | Добавлен: 30 мар 2014
Раздают: 1597    Качают: 298
Скачать торрент
Скачать торрент
Описание торрента

СообщениеДобавлено: 30 мар 2014 


Информация о фильме
Название: Профессия репортер
Год выпуска: 2014
Жанр: Документальный
Режиссер: Екатерина Гордеева


Описание:
"Профессия-репортер" - это цикл телевизионных репортажей на актуальные темы современного мира. Это интересный, острый социальный или экстремальный репортаж. В каждом еженедельном репортаже заложен свой конфликт, актуальность и проблематика. Каждый корреспондент программы - уникален и преподносит свою, индивидуальную точку зрения на ту или иную проблему, событие или явление. Если в Вашем городе, регионе или стране происходят важные события или необычные явления, если это остро и актуально, пишите нам, и мы обязательно приедем к Вам.


Оранжевая Принцесса хочет развязать войну с Россией?
Юлия Тимошенко: кто стоит у нее за спиной и как украинские воры в законе помогают ей разобраться с неугодными?
Зачем Леди Ю сблизилась с националистами, где она прячет наворованные миллиарды и кому дама с косой принесла мучительную смерть?
Кровь, секс и грязные деньги в фильме «Принцесса у параши»


Продолжительность: ~ 00:29:37
Выпущено:
Перевод: Не требуется
Автор рипа: ВИТ555
Файл
Формат: AVI
Качество: SATRip
Видео: XviD, ~1801 kb/s, 720x448
Аудио: MP3, 2ch., 128 kb/s

Формат : AVI
Формат/Информация : Audio Video Interleave
Размер файла : 410 Мбайт
Продолжительность : 29 м.
Общий поток : 1934 Кбит/сек
Программа кодирования : VirtualDubMod 1.5.10.3 | (build 2550/release)
Библиотека кодирования : VirtualDubMod build 2550/release
Видео
Идентификатор : 0
Формат : MPEG-4 Visual
Профиль формата : Advanced Simple@L5
Параметр BVOP формата : 2
Параметр QPel формата : Нет
Параметр GMC формата : Без точки перехода
Параметр матрицы формата : Default (MPEG)
Идентификатор кодека : XVID
Идентификатор кодека/Подсказка : XviD
Продолжительность : 29 м.
Битрейт : 1796 Кбит/сек
Ширина : 720 пикселей
Высота : 448 пикселей
Соотношение сторон : 1,607
Частота кадров : 25,000 кадров/сек
Цветовое пространство : YUV
Субдискретизация насыщенности : 4:2:0
Битовая глубина : 8 бит
Тип развёртки : Прогрессивная
Метод сжатия : С потерями
Бит/(Пиксели*Кадры) : 0.223
Размер потока : 381 Мбайт (93%)
Библиотека кодирования : XviD 1.2.1 (UTC 2008-12-04)
Аудио
Идентификатор : 1
Формат : MPEG Audio
Версия формата : Version 1
Профиль формата : Layer 3
Режим : Joint stereo
Идентификатор кодека : 55
Идентификатор кодека/Подсказка : MP3
Продолжительность : 29 м.
Вид битрейта : Постоянный
Битрейт : 128 Кбит/сек
Каналы : 2 канала
Частота : 48,0 КГц
Метод сжатия : С потерями
Размер потока : 27,1 Мбайт (7%)
Выравнивание : Соединение по промежуткам
Продолжительность промежутка : 40 мс. (1,00 видеокадр)
Время предзагрузки промежутка : 504 мс.
Библиотека кодирования : LAME3.99r
Настройки программы : -m j -V 4 -q 2 -lowpass 17 -b 128






   Похожие торренты   Торрент   Размер 
В этой теме нет новых непрочитанных сообщений. Профессия репортер. Агент тайного ордена [22.03] (2014) SATRip

175 | 14

387.97 МБ

В этой теме нет новых непрочитанных сообщений. Профессия репортер. Сектанты из глубинки: секс и смерть [2014.09.27] (2014) SATRip

91 | 11

410.8 МБ

В этой теме нет новых непрочитанных сообщений. Профессия - репортер [22.02] (2015) SATRip

11 | 5

303.92 МБ

В этой теме нет новых непрочитанных сообщений. Профессия репортер. На Дне (04.06.2011) SATRip

0 | 5

272.46 МБ

В этой теме нет новых непрочитанных сообщений. Профессия репортер [23 выпуска] (2010) SATRip

0 | 5

5.53 ГБ

В этой теме нет новых непрочитанных сообщений. Профессия - репортер [эфир от 06.10] (2012) SATRip

0 | 2

262.17 МБ

В этой теме нет новых непрочитанных сообщений. Профессия репортер. Мы не овощи (2010) SATRip

0 | 4

249.72 МБ




Вы не можете начинать темы
Вы не можете отвечать на сообщения
Вы не можете редактировать свои сообщения
Вы не можете удалять свои сообщения
Вы не можете добавлять вложения

Перейти:  
Для Мосгорсуда, Роскомнадзора и рекламодателей: mosgorsud-torrent[собачка]yandex.ru
 Вход
ppkBB3cker v.2 © 2008-2014 @ PPK
[ Time : 0.035s | 15 Queries | GZIP : Off ]

cron