img image001 image001 image001 image001 image001 image001 image001 image001 image001 image001 image001 image001 image001 image001 image001

Planets Sun Sun Sun
Статистика раздачи
Автор: Nickolas3434 | Размер: 559.93 МБ | Добавлен: 30 мар 2014
Раздают: 504    Качают: 83
Скачать торрент
Скачать торрент
Описание торрента

СообщениеДобавлено: 30 мар 2014 


Информация о фильме
Название: Кто не пускает нас на Марс?
Год выпуска: 2013
Жанр: Документальный, космос, гипотезы, исследование
Режиссер: Андрей Розов
Участники: Ричард Хогланд, Владимир Перминов, Игорь Митрофанов, Михаил Иванов, Эфрейм Папермо, Александр Портнов, Эрик Галимов


Описание:
Одна из главных тайн Марса открыта! На нем когда-то была вода. Это стало известно после обнаружения роботом Курьесити неоспоримых признаков существовавшей когда-то на планете жизни. Аппарат, название которого переводится как "любопытство", помог впервые ответить на один из важных вопросов: есть или была ли когда-то на Марсе жизнь?



Но не менее удивительно другое: над всем, что связано с исследованиями Марса, словно витает злой рок. Лишь треть всех аппаратов, отправленных к красной планете, выполнила свою задачу; остальные либо пропадали на пути к Марсу, либо загадочно погибали. Ученые уже окрестили сложности в изучении планеты марсианским проклятием. Последней в цепочке странных совпадений стала неожиданная катастрофа с российским "Фобос-Грунтом", стартовавшим с Байконура 9 ноября 2011 года. Всего Россия потеряла 25 аппаратов, США – 14. Бывший сотрудник НАСА Ричард Хогланд еще в далекие 70-е назвал непостижимую силу, которая раз за разом "съедает" спутники, "великим галактическим вором".
Что же на самом деле происходит на красной планете? Почему Марс до сих пор полон тайн? Анализируя причины поломок, начиная с 60-х и до сегодняшнего дня, конструкторы каждый раз сталкивались с цепочкой нелепых случайностей, которые становились роковыми. Как будто кто-то отслеживал проводимые в секретности эксперименты и срывал полет. Но даже аппараты, подлетавшие близко к Марсу и севшие на его поверхность, нередко испытывали на себе его загадочное воздействие. Не избежал этой участи и прибывший на планету в августе 2012 года Курьесити. Робот прожег лазером марсианскую почву - и тут же вышел из строя один из важнейших его узлов. В 1988 году к спутнику Марса отправили два советских аппарата. Долетел лишь один. Перед тем как исчезнуть, он зафиксировал в поле своего обзора, в районе Фобоса, "неизвестный объект значительных размеров". До сих пор ученые не могут ответить на вопрос, что такое Фобос. Многие уверены - это не спутник Марса, а древний космический корабль, межпланетная станция, охраняющая планету с помощью специального невидимого щита. Именно он губит аппараты.
Откровенные мистификации и удивительные факты делали Марс самой таинственной планетой для нас. Ни одна из планет не вызывала столько эмоций и священного ужаса. Но, несмотря на это, люди всегда чувствовали с ним какую-то необъяснимую связь.


Продолжительность: 00:43:55
Выпущено:
Перевод: Не требуется
Автор рипа: ВИТ555
Файл
Формат: AVI
Качество: SATRip
Видео: XviD, ~1644 kbps, 640x480
Аудио: MP3, 2ch., 128 kb/s

General
Complete name : D:VideoMars.SATRip.avi
Format : AVI
Format/Info : Audio Video Interleave
File size : 560 MiB
Duration : 43mn 55s
Overall bit rate : 1 782 Kbps
Writing library : VirtualDub build 30009/release
Video
ID : 0
Format : MPEG-4 Visual
Format profile : Advanced Simple@L5
Format settings, BVOP : 2
Format settings, QPel : No
Format settings, GMC : No warppoints
Format settings, Matrix : Default (MPEG)
Muxing mode : Packed bitstream
Codec ID : XVID
Codec ID/Hint : XviD
Duration : 43mn 55s
Bit rate : 1 644 Kbps
Width : 640 pixels
Height : 480 pixels
Display aspect ratio : 4:3
Frame rate : 25.000 fps
Color space : YUV
Chroma subsampling : 4:2:0
Bit depth : 8 bits
Scan type : Progressive
Compression mode : Lossy
Bits/(Pixel*Frame) : 0.214
Stream size : 517 MiB (92%)
Writing library : XviD 64
Audio
ID : 1
Format : MPEG Audio
Format version : Version 1
Format profile : Layer 3
Mode : Joint stereo
Mode extension : MS Stereo
Codec ID : 55
Codec ID/Hint : MP3
Duration : 43mn 55s
Bit rate mode : Constant
Bit rate : 128 Kbps
Channel(s) : 2 channels
Sampling rate : 48.0 KHz
Compression mode : Lossy
Stream size : 40.2 MiB (7%)
Alignment : Split accross interleaves
Interleave, duration : 40 ms (1.00 video frame)
Interleave, preload duration : 500 ms







   Похожие торренты   Торрент   Размер 
В этой теме нет новых непрочитанных сообщений. Кто не пускает нас на Марс? (2013) SATRip

0 | 2

533.9 МБ

В этой теме нет новых непрочитанных сообщений. Билет на Марс (2013) SATRip от torrentfilm

82 | 4

423.42 МБ

В этой теме нет новых непрочитанных сообщений. Атакуем Марс! (2010) SATRip

1 | 2

258.55 МБ

В этой теме нет новых непрочитанных сообщений. Переселение на Марс (2015) SATRip

184 | 8

1.3 ГБ

В этой теме нет новых непрочитанных сообщений. Увидеть Марс... и не сойти с ума (2011) SATRip

6 | 4

475.8 МБ

В этой теме нет новых непрочитанных сообщений. ЧП. Расследование. Марс атакует [эфир от 20.01] (2012) SATRip

0 | 25

170.59 МБ

В этой теме нет новых непрочитанных сообщений. День космических историй. Я отправляюсь на Марс (2016) SATRip

512 | 18

631.97 МБ




Вы не можете начинать темы
Вы не можете отвечать на сообщения
Вы не можете редактировать свои сообщения
Вы не можете удалять свои сообщения
Вы не можете добавлять вложения

Перейти:  
Для Мосгорсуда, Роскомнадзора и рекламодателей: mosgorsud-torrent[собачка]yandex.ru
 Вход
ppkBB3cker v.2 © 2008-2014 @ PPK
[ Time : 0.044s | 16 Queries | GZIP : Off ]

Торрент трекер RUTOR.IN, Не можете зайти на rutor.org? Какой новый адрес рутор? Какое зеркало рутор? Не работает rutor.org и зеркала? Тогда наш торрент специально для вас. Rutor.in неофициальное зеркало rutor. В случае если у Вас заблокирован rutor или вдруг Вы не можете на него зайти, то Вы без труда сможете скачать бесплатно и без рекламы последние новинки кино, игр, сериалов и прочего у нас, на Rutor.in. Не нужно использовать прокси, чтобы зайти на рутор, достаточно воспользоваться нашим ресурсом. Все новые фильмы, игры, сериалы, книги и музыка за 2013 и 2014 годы через торрент бесплатно. Скачивайте фильмы в хорошем качестве, игры для пк, xbox, playstation без регистрации. У нас вы найдете новые Зарубежные сериалы и Русские сериалы 2013, 2014, 2015 годов. Оставайтесь с нами, качайте любимые фильмы, игры, сериалы, книги и музыку.