img image001 image001 image001 image001 image001 image001 image001 image001 image001 image001 image001 image001 image001 image001 image001

Planets Sun Sun Sun
Статистика раздачи
Автор: Nickolas3434 | Размер: 834.74 МБ | Добавлен: 30 мар 2014
Раздают: 480    Качают: 120
Скачать торрент
Скачать торрент
Описание торрента

СообщениеДобавлено: 30 мар 2014 


Информация о фильме
Название: Неделя с Марианной Максимовской
Год выпуска: 2014
Жанр: Информационно-аналитическая программа
Ведущая: Марианна Максимовская


Описание:
Программа «Неделя» — еженедельный итоговый общественно-политический журнал. Мы информируем о самых важных и интересных событиях недели, анализируем их в репортажах и интервью и рассказываем о главных тенденциях. Мы говорим о том, что волнует общество в целом и каждого в отдельности, и стараемся делать это объективно. Мы рассказываем не только о достижениях, но и об ошибках. И мы в эфире уже шесть телевизионных сезонов! Программа «Неделя» — самый беспристрастный взгляд на события последних семи дней.


Продолжительность: 01:06:49
Выпущено:
Перевод: Не требуется
Автор рипа: Ponomarev1997
Файл
Формат: AVI
Качество: SATRip
Видео: XVID, ~1800 kb/s, 640 x 480
Аудио: MP3, 2.0ch., 128 kb/s

Формат : AVI
Формат/Информация : Audio Video Interleave
Размер файла : 835 Мбайт
Продолжительность : 1 ч. 0 м.
Общий поток : 1938 Кбит/сек
Библиотека кодирования : VirtualDub build 32706/release
Видео
Идентификатор : 0
Формат : MPEG-4 Visual
Профиль формата : Advanced Simple@L5
Параметр BVOP формата : 2
Параметр QPel формата : Нет
Параметр GMC формата : Без точки перехода
Параметр матрицы формата : Default (MPEG)
Идентификатор кодека : XVID
Идентификатор кодека/Подсказка : XviD
Продолжительность : 1 ч. 0 м.
Битрейт : 1800 Кбит/сек
Ширина : 640 пикселей
Высота : 480 пикселей
Соотношение сторон : 4:3
Частота кадров : 25,000 кадров/сек
Цветовое пространство : YUV
Субдискретизация насыщенности : 4:2:0
Битовая глубина : 8 бит
Тип развёртки : Прогрессивная
Метод сжатия : С потерями
Бит/(Пиксели*Кадры) : 0.234
Размер потока : 775 Мбайт (93%)
Библиотека кодирования : XviD 1.2.1 (UTC 2008-12-04)
Аудио
Идентификатор : 1
Формат : MPEG Audio
Версия формата : Version 1
Профиль формата : Layer 3
Режим : Joint stereo
Расширение режима : MS Stereo
Идентификатор кодека : 55
Идентификатор кодека/Подсказка : MP3
Продолжительность : 1 ч. 0 м.
Вид битрейта : Постоянный
Битрейт : 128 Кбит/сек
Каналы : 2 канала
Частота : 48,0 КГц
Метод сжатия : С потерями
Размер потока : 55,1 Мбайт (7%)
Выравнивание : Разделение по промежуткам
Продолжительность промежутка : 40 мс. (1,00 видеокадр)
Время предзагрузки промежутка : 500 мс.






   Похожие торренты   Торрент   Размер 
В этой теме нет новых непрочитанных сообщений. Неделя с Марианной Максимовской [22.03] (2014) SATRip

278 | 44

926.04 МБ

В этой теме нет новых непрочитанных сообщений. Неделя с Марианной Максимовской [05.04] (2014) SATRip

50 | 212

864.05 МБ

В этой теме нет новых непрочитанных сообщений. Неделя с Марианной Максимовской [эфир от 15.03] (2014) SATRip

694 | 41

862.71 МБ

В этой теме нет новых непрочитанных сообщений. Неделя с Марианной Максимовской [эфир от 01.03] (2014) SATRip

318 | 36

776.92 МБ

В этой теме нет новых непрочитанных сообщений. Неделя с Марианной Максимовской [эфир от 15.02] (2014) SATRip

173 | 44

938.19 МБ

В этой теме нет новых непрочитанных сообщений. Неделя с Марианной Максимовской [эфир от 08.02] (2014) SATRip

112 | 5

884.65 МБ

В этой теме нет новых непрочитанных сообщений. Неделя с Марианной Максимовской [эфир от 01.02] (2014) SATRip

62 | 2

907.16 МБ




Вы не можете начинать темы
Вы не можете отвечать на сообщения
Вы не можете редактировать свои сообщения
Вы не можете удалять свои сообщения
Вы не можете добавлять вложения

Перейти:  
Для Мосгорсуда, Роскомнадзора и рекламодателей: mosgorsud-torrent[собачка]yandex.ru
 Вход
ppkBB3cker v.2 © 2008-2014 @ PPK
[ Time : 0.054s | 14 Queries | GZIP : Off ]

Торрент трекер RUTOR.IN, Не можете зайти на rutor.org? Какой новый адрес рутор? Какое зеркало рутор? Не работает rutor.org и зеркала? Тогда наш торрент специально для вас. Rutor.in неофициальное зеркало rutor. В случае если у Вас заблокирован rutor или вдруг Вы не можете на него зайти, то Вы без труда сможете скачать бесплатно и без рекламы последние новинки кино, игр, сериалов и прочего у нас, на Rutor.in. Не нужно использовать прокси, чтобы зайти на рутор, достаточно воспользоваться нашим ресурсом. Все новые фильмы, игры, сериалы, книги и музыка за 2013 и 2014 годы через торрент бесплатно. Скачивайте фильмы в хорошем качестве, игры для пк, xbox, playstation без регистрации. У нас вы найдете новые Зарубежные сериалы и Русские сериалы 2013, 2014, 2015 годов. Оставайтесь с нами, качайте любимые фильмы, игры, сериалы, книги и музыку.