img image001 image001 image001 image001 image001 image001 image001 image001 image001 image001 image001 image001 image001 image001 image001

Planets Sun Sun Sun
Статистика раздачи
Автор: Nickolas3434 | Размер: 508.06 МБ | Добавлен: 30 мар 2014
Раздают: 147    Качают: 45
Скачать торрент
Скачать торрент
Описание торрента

СообщениеДобавлено: 30 мар 2014 


Информация о фильме
Название: Центральное телевидение
Год выпуска: 2014
Жанр: Тележурналистика
Ведущие: Вадим Такменёв и Анна Кастерова


Описание:
Сегодня мы вылавливаем новости в телеэфире и Интернете, обсуждаем в очередях и в блогах, обмениваемся ссылками на интересные видеоролики и фото и не делим новости на «официальные» и «из жизни». Чтобы вызвать цепную реакцию, любая тема должна отвечать единственному требованию — быть интересной. Тот же принцип положен в основу нового воскресного проекта НТВ «Центральное телевидение». Формат, в котором нет понятий «формата» и «неформата». Мультимедийный и мультижанровый. Отбирающий информационные поводы по единственному весомому критерию: что интересно — то и показываем! «Центральное телевидение» — это телевизионный шейкер, в котором взбивается и смешивается все что угодно, кроме скучных тем и неинтересных лиц. Ингредиенты всегда разные, и невозможно предугадать, каким будет вкус. Единственный выход — каждый раз пробовать заново!


- Говорят, русские спешно избавляются от недвижимости в Майами и Ницце. Кто они и куда решили перебраться с насиженных мест?
- Эти ночи в Крыму теперь кому? А также дачи, квартиры, апартаменты и виллы? Что и почем можно купить в новом российском регионе и неужели жизнь у моря теперь намного доступнее?
- Может, лучше обменять опостылевшую хрущевку на жизнь-мечту — без политики, суеты и квартплаты? Как это сделала русская семья, которая уже обошла полмира на собственной яхте.
- Ее телефонный разговор был явно не для посторонних ушей, а особняк – не для посторонних глаз. Новая искренность от Юлии Тимошенко. Почему кандидата в президенты уже ничего не смущает?
- Шокирующие кадры недели: суровые сибирские сыровары принимают на работе молочные ванны. В каких магазинах страны оказался сыр со вкусом «клубнички»? И как теперь доверять отечественному производителю?
- Кто из них быстрее, кто выше, а кто – сильнее? Впервые российские политики меряются не рейтингами. Кто из них смирился с новой идеей вернуть нормы ГТО, а кто окажется не готов к труду и обороне?


Продолжительность: ~ 00:36:41
Выпущено:
Перевод: Не требуется
Автор рипа: ВИТ555
Файл
Формат: AVI
Качество: SATRip
Видео: XVID, ~1793 kb/s, 720 x 448
Аудио: MP3, 2.0ch., 128 kb/s

Формат : AVI
Формат/Информация : Audio Video Interleave
Размер файла : 508 Мбайт
Продолжительность : 36 м.
Общий поток : 1936 Кбит/сек
Программа кодирования : VirtualDubMod 1.5.10.3 | (build 2550/release)
Библиотека кодирования : VirtualDubMod build 2550/release
Видео
Идентификатор : 0
Формат : MPEG-4 Visual
Профиль формата : Advanced Simple@L5
Параметр BVOP формата : 2
Параметр QPel формата : Нет
Параметр GMC формата : Без точки перехода
Параметр матрицы формата : Default (MPEG)
Идентификатор кодека : XVID
Идентификатор кодека/Подсказка : XviD
Продолжительность : 36 м.
Битрейт : 1798 Кбит/сек
Ширина : 720 пикселей
Высота : 448 пикселей
Соотношение сторон : 1,607
Частота кадров : 25,000 кадров/сек
Цветовое пространство : YUV
Субдискретизация насыщенности : 4:2:0
Битовая глубина : 8 бит
Тип развёртки : Прогрессивная
Метод сжатия : С потерями
Бит/(Пиксели*Кадры) : 0.223
Размер потока : 472 Мбайт (93%)
Библиотека кодирования : XviD 1.2.1 (UTC 2008-12-04)
Аудио
Идентификатор : 1
Формат : MPEG Audio
Версия формата : Version 1
Профиль формата : Layer 3
Режим : Joint stereo
Идентификатор кодека : 55
Идентификатор кодека/Подсказка : MP3
Продолжительность : 36 м.
Вид битрейта : Постоянный
Битрейт : 128 Кбит/сек
Каналы : 2 канала
Частота : 48,0 КГц
Метод сжатия : С потерями
Размер потока : 33,6 Мбайт (7%)
Выравнивание : Соединение по промежуткам
Продолжительность промежутка : 40 мс. (1,00 видеокадр)
Время предзагрузки промежутка : 504 мс.
Библиотека кодирования : LAME3.99r
Настройки программы : -m j -V 4 -q 2 -lowpass 17 -b 128






   Похожие торренты   Торрент   Размер 
В этой теме нет новых непрочитанных сообщений. Центральное телевидение [22.03] (2014) SATRip

102 | 34

570.69 МБ

В этой теме нет новых непрочитанных сообщений. Центральное телевидение [эфир от 09.12] (2012) SATRip

0 | 1

1.34 ГБ

В этой теме нет новых непрочитанных сообщений. Центральное телевидение [эфир от 16.11] (2013) SATRip

0 | 1

464.46 МБ

В этой теме нет новых непрочитанных сообщений. Центральное телевидение [эфир от 23.11] (2013) SATRip

0 | 1

478.49 МБ

В этой теме нет новых непрочитанных сообщений. Центральное телевидение [эфир от 02.12] (2012) SATRip

0 | 3

1.37 ГБ

В этой теме нет новых непрочитанных сообщений. Центральное телевидение [эфир от 03.03] (2013) SATRip

1 | 1

521.86 МБ

В этой теме нет новых непрочитанных сообщений. Центральное телевидение [эфир от 17.03] (2013) SATRip

1 | 1

522.56 МБ




Вы не можете начинать темы
Вы не можете отвечать на сообщения
Вы не можете редактировать свои сообщения
Вы не можете удалять свои сообщения
Вы не можете добавлять вложения

Перейти:  
Для Мосгорсуда, Роскомнадзора и рекламодателей: mosgorsud-torrent[собачка]yandex.ru
 Вход
ppkBB3cker v.2 © 2008-2014 @ PPK
[ Time : 0.026s | 14 Queries | GZIP : Off ]

Торрент трекер RUTOR.IN, Не можете зайти на rutor.org? Какой новый адрес рутор? Какое зеркало рутор? Не работает rutor.org и зеркала? Тогда наш торрент специально для вас. Rutor.in неофициальное зеркало rutor. В случае если у Вас заблокирован rutor или вдруг Вы не можете на него зайти, то Вы без труда сможете скачать бесплатно и без рекламы последние новинки кино, игр, сериалов и прочего у нас, на Rutor.in. Не нужно использовать прокси, чтобы зайти на рутор, достаточно воспользоваться нашим ресурсом. Все новые фильмы, игры, сериалы, книги и музыка за 2013 и 2014 годы через торрент бесплатно. Скачивайте фильмы в хорошем качестве, игры для пк, xbox, playstation без регистрации. У нас вы найдете новые Зарубежные сериалы и Русские сериалы 2013, 2014, 2015 годов. Оставайтесь с нами, качайте любимые фильмы, игры, сериалы, книги и музыку.