img image001 image001 image001 image001 image001 image001 image001 image001 image001 image001 image001 image001 image001 image001 image001

Planets Sun Sun Sun
Статистика раздачи
Автор: Nickolas3434 | Размер: 589.53 МБ | Добавлен: 30 мар 2014
Раздают: 59    Качают: 16
Скачать торрент
Скачать торрент
Описание торрента

СообщениеДобавлено: 30 мар 2014 


Информация о фильме
Название: Новые русские сенсации
Год выпуска: 2014
Жанр: Документальный
Режиссеры: Глеб Ясиницкий, Андрей Куренков, Дмитрий Цура


Описание:
Программа "Русские сенсации" - это еженедельное документальное приложение к "Программе Максимум". Созданная в лучших традициях расследовательской журналистики, программа развивает и углубляет этот жанр, затрагивая темы, о которых раньше никогда не рассказывало отечественное ТВ. Большинство фильмов - уникальные разработки, слишком громкие и масштабные для еженедельной "Программы Максимум". Другие темы продолжают лучшие расследования "Программы Максимум", расширяя их до уровня общенациональной проблемы.


Проект "Русские сенсации" сохраняет все особенности стиля "Программы Максимум": актуальность, репортажность, активную работу репортера на месте расследования. Даже в случае с историческими детективами, делается упор на репортажную составляющую, а не на хронику (если только речь не об уникальной хронике). В каждом выпуске мы стремимся найти свой поворот темы, уникальных свидетелей, эксклюзивную информацию, которая раньше хранилась только под грифом "секретно". Программа носит подзаголовок - "информационный детектив", и это значит, что в программе будет максимум сенсаций, максимум неизвестных фактов, максимум разоблачений и зритель просто не сможет оторваться от экрана. В ближайших планах - громкие расследования о русской мафии за рубежом, тайнах масонской ложи России, неизвестных покушениях на первых лиц российского государства и знаменитых сектантах отечественной эстрады. Авторы фильмов - в прошлом самые известные журналисты "Пограммы "Максимум": Алексей Егоров, Павел Селин, Алексей Кудашов.


Роковая женщина — актриса Вера Сотникова.
Перед ее чарами не устояли самые известные, влиятельные и богатые мужчины. Пикантные откровения актрисы и признания всех ее фаворитов.


Продолжительность: ~ 00:42:38
Выпущено:
Перевод: Не требуется
Автор рипа: ВИТ555
Файл
Формат: AVI
Качество: SATRip
Видео: XVID, ~1801 kb/s, 720 x 448
Аудио: MP3, 2.0ch., 128 kb/s

Формат : AVI
Формат/Информация : Audio Video Interleave
Размер файла : 590 Мбайт
Продолжительность : 42 м.
Общий поток : 1933 Кбит/сек
Библиотека кодирования : TMPGEnc 4.0 XPress Version. 4.7.7.307
Видео
Идентификатор : 0
Формат : MPEG-4 Visual
Профиль формата : Advanced Simple@L5
Параметр BVOP формата : 2
Параметр QPel формата : Нет
Параметр GMC формата : Без точки перехода
Параметр матрицы формата : Default (MPEG)
Идентификатор кодека : XVID
Идентификатор кодека/Подсказка : XviD
Продолжительность : 42 м.
Битрейт : 1798 Кбит/сек
Ширина : 720 пикселей
Высота : 488 пикселей
Соотношение сторон : 3:2
Частота кадров : 25,000 кадров/сек
Цветовое пространство : YUV
Субдискретизация насыщенности : 4:2:0
Битовая глубина : 8 бит
Тип развёртки : Прогрессивная
Метод сжатия : С потерями
Бит/(Пиксели*Кадры) : 0.205
Размер потока : 548 Мбайт (93%)
Библиотека кодирования : XviD 64
Аудио
Идентификатор : 1
Формат : MPEG Audio
Версия формата : Version 1
Профиль формата : Layer 3
Режим : Joint stereo
Идентификатор кодека : 55
Идентификатор кодека/Подсказка : MP3
Продолжительность : 42 м.
Вид битрейта : Постоянный
Битрейт : 128 Кбит/сек
Каналы : 2 канала
Частота : 48,0 КГц
Метод сжатия : С потерями
Размер потока : 39,0 Мбайт (7%)
Выравнивание : Соединение по промежуткам
Продолжительность промежутка : 250 мс. (6,25 видеокадров)
Время предзагрузки промежутка : 192 мс.






   Похожие торренты   Торрент   Размер 
В этой теме нет новых непрочитанных сообщений. Новые русские сенсации. Эксгумация Гитлера [05.04] (2014) SATRip

468 | 161

576.03 МБ

В этой теме нет новых непрочитанных сообщений. Новые русские сенсации: Они кричали за родину (2017) SATRip от -=FOX=-

5 | 0

1.24 ГБ

В этой теме нет новых непрочитанных сообщений. Новые русские сенсации. Тайная страсть миллиардеров (Эфир от 02.07.2017) (НТВ) [2017, документальный, SATRip]

5 | 0

648.27 МБ

В этой теме нет новых непрочитанных сообщений. Новые русские сенсации. Диана Шурыгина. История всероссийского скандала (Эфир от 01.10.2017) ( НТВ) [2017, документальный, SATRip]

10 | 2

595.59 МБ

В этой теме нет новых непрочитанных сообщений. Новые русские сенсации. Татьяна Овсиенко. Очная ставка с мужем (Эфир от 17.09.2017) ( НТВ) [2017, документальный, SATRip]

15 | 0

632.72 МБ

В этой теме нет новых непрочитанных сообщений. Новые русские сенсации: Пусть говорит Малахов (2017) HDTVRip от Generalfilm

24 | 1

550.38 МБ

В этой теме нет новых непрочитанных сообщений. Новые русские сенсации: Ванга против экстрасенсов (2016) HDTVRip от Generalfilm

8 | 0

550.31 МБ




Вы не можете начинать темы
Вы не можете отвечать на сообщения
Вы не можете редактировать свои сообщения
Вы не можете удалять свои сообщения
Вы не можете добавлять вложения

Перейти:  
Для Мосгорсуда, Роскомнадзора и рекламодателей: mosgorsud-torrent[собачка]yandex.ru
 Вход
ppkBB3cker v.2 © 2008-2014 @ PPK
[ Time : 0.047s | 16 Queries | GZIP : Off ]

cron