img image001 image001 image001 image001 image001 image001 image001 image001 image001 image001 image001 image001 image001 image001 image001

Planets Sun Sun Sun
Статистика раздачи
Автор: Nickolas3434 | Размер: 5.74 ГБ | Добавлен: 30 мар 2014
Раздают: 23    Качают: 17
Скачать торрент
Скачать торрент
Описание торрента

СообщениеДобавлено: 30 мар 2014 

Дата/Год выпуска: 2014
Страна: США
Жанр: Тв-шоу, церемония награждения
Продолжительность: 01:02:34, 02:55:39
Перевод: Авторский (одноголосый закадровый) [Doctor Joker]
Русские субтитры: нет

Оригинальная аудиодорожка: английский

Описание: "Оскар" - главная кинопремия США и самая престижная кинонаграда мира. Вручается ежегодно Американской академией киноискусства. В отличие от большинства кинофестивалей, "Оскары" вручаются по результатам всеобщего голосования членов Академии, а не по выбору жюри. Торжественная церемония вручения транслируется в десятках стран в прямом эфире. Первое вручение премии "Оскар" состоялось в 1929 году. До 1976 года прямая трансляция церемонии проводилась каналом NBC, теперь же права принадлежат ABC.
86-я церемония вручения премий Оскар состоится 2 марта 2014 года. Перенос церемонии с последнего воскресенья февраля на первое воскресенье марта связан с проведением зимних Олимпийских игр в Сочи. Подача заявок продлится до 2 декабря 2013 года. Голосование, которое определит список номинантов, начнется 27 декабря 2013 года и завершится 8 января 2014 года. Претенденты будут представлены 16 января 2014 года.
14 февраля стартует финальный этап голосования Киноакадемиков, который закончится 25 февраля 2014 года.

Доп. информация: Работа со звуком - sashock86
Спонсор перевода будулайроманов


"Красная дорожка"
качество: HDTV 720p [2HD]
формат: MKV
Видео: x264 High@L4.1, 1280x720, 29,970 fps, 3784 kbps, 0.137 bit/pixel
Аудио 1: AC3 Dolby Digital, 5.1 ch, 48 kHz, 384 kbps [Russian]
Аудио 2: AC3 Dolby Digital, 5.1 ch, 48 kHz, 384 kbps [English]
Код:
Общее
Уникальный идентификатор                 : 196372841906815032178825252540630378778 (0x93BC089D3D2A1F17BF2C8DDB4CCB291A)
Полное имя                               : Oskar.2014.Krasnaya.Kovrovaya.Dorozhka.RUS.HDTV.720p.h264.AC3.-R.G.TorrBy.mkv
Формат                                   : Matroska
Версия формата                           : Version 2
Размер файла                             : 2,03 Гбайт
Продолжительность                        : 1 ч. 2 м.
Общий поток                              : 4644 Кбит/сек
Дата кодирования                         : UTC 2014-03-14 16:27:02
Программа кодирования                    : mkvmerge v4.9.1 ('Ich will') сборка от Jul 11 2011 23:53:15
Библиотека кодирования                   : libebml v1.2.1 + libmatroska v1.1.1

Видео
Идентификатор                            : 1
Формат                                   : AVC
Формат/Информация                        : Advanced Video Codec
Профиль формата                          : High@L4.1
Параметр CABAC формата                   : Да
Параметр ReFrames формата                : 5 кадров
Идентификатор кодека                     : V_MPEG4/ISO/AVC
Продолжительность                        : 1 ч. 2 м.
Битрейт                                  : 3784 Кбит/сек
Ширина                                   : 1280 пикселей
Высота                                   : 720 пикселей
Соотношение сторон                       : 16:9
Режим частоты кадров                     : Постоянный
Частота кадров                           : 29,970 кадров/сек
Цветовое пространство                    : YUV
Субдискретизация насыщенности            : 4:2:0
Битовая глубина                          : 8 бит
Тип развёртки                            : Прогрессивная
Бит/(Пиксели*Кадры)                      : 0.137
Размер потока                            : 1,65 Гбайт (81%)
Библиотека кодирования                   : x264 core 142 r2389 956c8d8
Настройки программы                      : cabac=1 / ref=5 / deblock=1:0:0 / analyse=0x3:0x113 / me=umh / subme=8 / psy=1 / psy_rd=1.00:0.00 / mixed_ref=1 / me_range=16 / chroma_me=1 / trellis=1 / 8x8dct=1 / cqm=0 / deadzone=21,11 / fast_pskip=1 / chroma_qp_offset=-2 / threads=12 / lookahead_threads=2 / sliced_threads=0 / nr=0 / decimate=1 / interlaced=0 / bluray_compat=0 / constrained_intra=0 / bframes=3 / b_pyramid=2 / b_adapt=2 / b_bias=0 / direct=3 / weightb=1 / open_gop=0 / weightp=2 / keyint=250 / keyint_min=25 / scenecut=40 / intra_refresh=0 / rc_lookahead=50 / rc=crf / mbtree=1 / crf=22.0 / qcomp=0.60 / qpmin=0 / qpmax=69 / qpstep=4 / ip_ratio=1.40 / aq=1:1.00
Default                                  : Да
Forced                                   : Нет
Коэффициенты матрицы                     : BT.709

Аудио #1
Идентификатор                            : 2
Формат                                   : AC-3
Формат/Информация                        : Audio Coding 3
Расширение режима                        : CM (complete main)
Параметр Endianness формата              : Big
Идентификатор кодека                     : A_AC3
Продолжительность                        : 1 ч. 2 м.
Вид битрейта                             : Постоянный
Битрейт                                  : 384 Кбит/сек
Каналы                                   : 6 каналов
Расположение каналов                     : Front: L C R, Side: L R, LFE
Частота                                  : 48,0 КГц
Битовая глубина                          : 16 бит
Метод сжатия                             : С потерями
Размер потока                            : 172 Мбайт (8%)
Заголовок                                : Doctor Joker
Язык                                     : Russian
Default                                  : Да
Forced                                   : Нет

Аудио #2
Идентификатор                            : 3
Формат                                   : AC-3
Формат/Информация                        : Audio Coding 3
Расширение режима                        : CM (complete main)
Параметр Endianness формата              : Big
Идентификатор кодека                     : A_AC3
Продолжительность                        : 1 ч. 2 м.
Вид битрейта                             : Постоянный
Битрейт                                  : 384 Кбит/сек
Каналы                                   : 6 каналов
Расположение каналов                     : Front: L C R, Side: L R, LFE
Частота                                  : 48,0 КГц
Битовая глубина                          : 16 бит
Метод сжатия                             : С потерями
Размер потока                            : 172 Мбайт (8%)
Заголовок                                : Original
Язык                                     : English
Default                                  : Нет
Forced                                   : Нет





"Церемония награждения"

качество: HDTV 720p [2HD]
формат: MKV
Видео: x264 High@L4.1, 1280x720, 29,970 fps, 2197 kbps, 0.080 bit/pixel
Аудио 1: AC3 Dolby Digital, 5.1 ch, 48 kHz, 384 kbps [Russian]
Аудио 2: AC3 Dolby Digital, 5.1 ch, 48 kHz, 384 kbps [English]
Общее
Уникальный идентификатор : 199416187553992604308207599533872692005 (0x96062923AC4D0E56A938D5D985D4BB25)
Полное имя : Oskar.2014.Tseremoniya.Vrucheniya.RUS.HDTV.720p.x264.AC3.-R.G.TorrBy.mkv
Формат : Matroska
Версия формата : Version 2
Размер файла : 3,71 Гбайт
Продолжительность : 2 ч. 55 м.
Общий поток : 3025 Кбит/сек
Дата кодирования : UTC 2014-03-29 11:55:40
Программа кодирования : mkvmerge v4.9.1 ('Ich will') сборка от Jul 11 2011 23:53:15
Библиотека кодирования : libebml v1.2.1 + libmatroska v1.1.1

Видео
Идентификатор : 1
Формат : AVC
Формат/Информация : Advanced Video Codec
Профиль формата : High@L4.1
Параметр CABAC формата : Да
Параметр ReFrames формата : 5 кадров
Идентификатор кодека : V_MPEG4/ISO/AVC
Продолжительность : 2 ч. 55 м.
Битрейт : 2197 Кбит/сек
Ширина : 1280 пикселей
Высота : 720 пикселей
Соотношение сторон : 16:9
Режим частоты кадров : Постоянный
Частота кадров : 29,970 кадров/сек
Цветовое пространство : YUV
Субдискретизация насыщенности : 4:2:0
Битовая глубина : 8 бит
Тип развёртки : Прогрессивная
Бит/(Пиксели*Кадры) : 0.080
Размер потока : 2,70 Гбайт (73%)
Библиотека кодирования : x264 core 142 r2389 956c8d8
Настройки программы : cabac=1 / ref=5 / deblock=1:0:0 / analyse=0x3:0x113 / me=umh / subme=8 / psy=1 / psy_rd=1.00:0.00 / mixed_ref=1 / me_range=16 / chroma_me=1 / trellis=1 / 8x8dct=1 / cqm=0 / deadzone=21,11 / fast_pskip=1 / chroma_qp_offset=-2 / threads=12 / lookahead_threads=2 / sliced_threads=0 / nr=0 / decimate=1 / interlaced=0 / bluray_compat=0 / constrained_intra=0 / bframes=3 / b_pyramid=2 / b_adapt=2 / b_bias=0 / direct=3 / weightb=1 / open_gop=0 / weightp=2 / keyint=250 / keyint_min=25 / scenecut=40 / intra_refresh=0 / rc_lookahead=50 / rc=crf / mbtree=1 / crf=22.0 / qcomp=0.60 / qpmin=0 / qpmax=69 / qpstep=4 / ip_ratio=1.40 / aq=1:1.00
Default : Да
Forced : Нет
Коэффициенты матрицы : BT.709

Аудио #1
Идентификатор : 2
Формат : AC-3
Формат/Информация : Audio Coding 3
Расширение режима : CM (complete main)
Параметр Endianness формата : Big
Идентификатор кодека : A_AC3
Продолжительность : 2 ч. 55 м.
Вид битрейта : Постоянный
Битрейт : 384 Кбит/сек
Каналы : 6 каналов
Расположение каналов : Front: L C R, Side: L R, LFE
Частота : 48,0 КГц
Битовая глубина : 16 бит
Метод сжатия : С потерями
Размер потока : 482 Мбайт (13%)
Заголовок : Матвеев
Язык : Russian
Default : Нет
Forced : Нет

Аудио #2
Идентификатор : 3
Формат : AC-3
Формат/Информация : Audio Coding 3
Расширение режима : CM (complete main)
Параметр Endianness формата : Big
Идентификатор кодека : A_AC3
Продолжительность : 2 ч. 55 м.
Вид битрейта : Постоянный
Битрейт : 384 Кбит/сек
Каналы : 6 каналов
Расположение каналов : Front: L C R, Side: L R, LFE
Частота : 48,0 КГц
Битовая глубина : 16 бит
Метод сжатия : С потерями
Размер потока : 482 Мбайт (13%)
Заголовок : Оригинал
Язык : English
Default : Нет
Forced : Нет





   Похожие торренты   Торрент   Размер 
В этой теме нет новых непрочитанных сообщений. 86-я церемония вручения премии «Оскар» / The 86th Annual Academy Awards (2014) HDTV 1080i

208 | 95

5.83 ГБ

В этой теме нет новых непрочитанных сообщений. 86-я церемония вручения премии «Оскар» 2014 / The 86th Annual Academy Awards. «Красная дорожка» + «Оскар» (2014) HDTV 720p

408 | 246

5 ГБ

В этой теме нет новых непрочитанных сообщений. 86-я церемония вручения премии «Оскар» 2014 / The 86th Annual Academy Awards. «Красная дорожка» + «Оскар» [FEED] (2014) HDTV 720p | 50 fps

32 | 43

20.31 ГБ

В этой теме нет новых непрочитанных сообщений. 86-я церемония вручения премии «Оскар» 2014 «Красная дорожка» / The 86th Annual Academy Awards. Red Carpet (2014) HDTV 720p

60 | 9

1.89 ГБ

В этой теме нет новых непрочитанных сообщений. 86-я церемония вручения премии «Оскар» / The 86th Annual Academy Awards (2014) SATRip | Телеверсия

520 | 86

1.22 ГБ

В этой теме нет новых непрочитанных сообщений. 84 церемония вручения премии «Оскар» / The 84th Annual Academy Awards (2012) HDTV 720p

0 | 2

2.91 ГБ

В этой теме нет новых непрочитанных сообщений. 89-я Церемония Вручения Премии «Оскар» 2016 / The 89th Annual Academy Awards [26.02] (2017) HDTV 1080i | Первый Канал

262 | 15

5.35 ГБ




Вы не можете начинать темы
Вы не можете отвечать на сообщения
Вы не можете редактировать свои сообщения
Вы не можете удалять свои сообщения
Вы не можете добавлять вложения

Перейти:  
Для Мосгорсуда, Роскомнадзора и рекламодателей: mosgorsud-torrent[собачка]yandex.ru
 Вход
ppkBB3cker v.2 © 2008-2014 @ PPK
[ Time : 0.054s | 16 Queries | GZIP : Off ]

Торрент трекер RUTOR.IN, Не можете зайти на rutor.org? Какой новый адрес рутор? Какое зеркало рутор? Не работает rutor.org и зеркала? Тогда наш торрент специально для вас. Rutor.in неофициальное зеркало rutor. В случае если у Вас заблокирован rutor или вдруг Вы не можете на него зайти, то Вы без труда сможете скачать бесплатно и без рекламы последние новинки кино, игр, сериалов и прочего у нас, на Rutor.in. Не нужно использовать прокси, чтобы зайти на рутор, достаточно воспользоваться нашим ресурсом. Все новые фильмы, игры, сериалы, книги и музыка за 2013 и 2014 годы через торрент бесплатно. Скачивайте фильмы в хорошем качестве, игры для пк, xbox, playstation без регистрации. У нас вы найдете новые Зарубежные сериалы и Русские сериалы 2013, 2014, 2015 годов. Оставайтесь с нами, качайте любимые фильмы, игры, сериалы, книги и музыку.
cron