img image001 image001 image001 image001 image001 image001 image001 image001 image001 image001 image001 image001 image001 image001 image001

Planets Sun Sun Sun
Статистика раздачи
Автор: Nickolas3434 | Размер: 651.22 МБ | Добавлен: 31 мар 2014
Раздают: 121    Качают: 25
Скачать торрент
Скачать торрент
Описание торрента

СообщениеДобавлено: 31 мар 2014 

Информация о фильме
Название: Тайны века. Николай Гастелло. Кто совершил великий подвиг?
Год выхода: 2005
Жанр: историческое расследование
Режиссер: Т.Огурная
Участники Журналисты, историки, участники и свидетели событий

О фильме:
Лет пятнадцать назад любой советский школьник на вопрос: "Кто такой Гастелло?" мог без запинки ответить: "Это летчик, который направил свой объятый пламенем самолет в гущу фашистских захватчиков и нанес существенный урон противнику". Так ли все было на самом деле? Рассекреченные архивы ставят под сомнение некоторые факты. В 1951 году останки экипажа Гастелло решили перенести из деревни Дешкняны, возле которой был совершен знаменитый подвиг, в районный центр Радошковичи. Когда вскрыли братскую могилу, в сохранившейся планшетке пилота неожиданно обнаружили документы на имя… капитана Александра Маслова. Еще был найден медальон стрелка-радиста Григория Реутова, члена экипажа капитана Маслова. Получается, таран совершил не Гастелло, а Маслов? Но какой же подвиг совершил тогда Гастелло? Съемочной группе удалось найти место падения и подлинную могилу, в которой был похоронен экипаж Николая Гастелло. А местные жители помогли восстановить хронику событий 65-летней давности.

Официальный сайт

Страна: Россия
Студия: ТК Останкино
Продолжительность: 00:51:51
Перевод: Не требуется

Файл
Кодек: Xvid (FourCC заменен на DivX)
Качество: TVRip
Видео: 640х480, 1554 Kbps, 25.000 fps
Звук: AC3 2.0, 192 Kbps

Семпл


General
Complete name : L:Pshichko66Na zapis'Podvig Gastello.avi
Format : AVI
Format/Info : Audio Video Interleave
File size : 651 MiB
Duration : 51mn 51s
Overall bit rate : 1 756 Kbps
Writing application : VirtualDubMod 1.5.10.2 (build 2540/release)
Writing library : VirtualDubMod build 2540/release

Video
ID : 0
Format : MPEG-4 Visual
Format profile : Advanced Simple@L5
Format settings, BVOP : 1
Format settings, QPel : No
Format settings, GMC : No warppoints
Format settings, Matrix : Default (MPEG)
Codec ID : DIVX
Codec ID/Info : Project Mayo
Codec ID/Hint : DivX 4
Duration : 51mn 51s
Bit rate : 1 554 Kbps
Width : 640 pixels
Height : 480 pixels
Display aspect ratio : 4:3
Frame rate : 25.000 fps
Color space : YUV
Chroma subsampling : 4:2:0
Bit depth : 8 bits
Scan type : Progressive
Compression mode : Lossy
Bits/(Pixel*Frame) : 0.202
Stream size : 576 MiB (89%)
Writing library : XviD 64

Audio
ID : 1
Format : AC-3
Format/Info : Audio Coding 3
Mode extension : CM (complete main)
Format settings, Endianness : Big
Codec ID : 2000
Duration : 51mn 51s
Bit rate mode : Constant
Bit rate : 192 Kbps
Channel count : 2 channels
Channel positions : Front: L R
Sampling rate : 48.0 KHz
Bit depth : 16 bits
Compression mode : Lossy
Stream size : 71.2 MiB (11%)
Alignment : Split accross interleaves
Interleave, duration : 40 ms (1.00 video frame)
Interleave, preload duration : 500 ms


Релиз от: Pshichko66



   Похожие торренты   Торрент   Размер 
В этой теме нет новых непрочитанных сообщений. Тайны века. Подвиг по приговору (2005) TVRip

70 | 1

496.06 МБ

В этой теме нет новых непрочитанных сообщений. Тайны века. Обреченные на подвиг (2004) DVDRip от Pshichko66

55 | 5

501.09 МБ

В этой теме нет новых непрочитанных сообщений. Николай Гастелло. Правда о подвиге (2007) IPTVRip от Pshichko66

165 | 5

699.04 МБ

В этой теме нет новых непрочитанных сообщений. Тайны Века: Обратная сторона Луны. Фальсификация полета американцев (2004) TVRip от tenow

3 | 3

350.33 МБ

В этой теме нет новых непрочитанных сообщений. Тайны века. Генрих Ягода.Падение маршала Лубянки (2005) SATRip

6 | 3

594.75 МБ

В этой теме нет новых непрочитанных сообщений. Эрнст Мулдашев. Тайны века. Живая мертвая вода (2005) DVDRip

21 | 5

350.45 МБ

В этой теме нет новых непрочитанных сообщений. Тайны века. Вольф Мессинг: я вижу мысли людей (2005) DVDRip от brazolargo

15 | 3

291.88 МБ




Вы не можете начинать темы
Вы не можете отвечать на сообщения
Вы не можете редактировать свои сообщения
Вы не можете удалять свои сообщения
Вы не можете добавлять вложения

Перейти:  
Для Мосгорсуда, Роскомнадзора и рекламодателей: mosgorsud-torrent[собачка]yandex.ru
 Вход
ppkBB3cker v.2 © 2008-2014 @ PPK
[ Time : 2.187s | 15 Queries | GZIP : On ]
CGP output time : 0.036s | 5 Queries | GZIP : On

Торрент трекер RUTOR.IN, Не можете зайти на rutor.org? Какой новый адрес рутор? Какое зеркало рутор? Не работает rutor.org и зеркала? Тогда наш торрент специально для вас. Rutor.in неофициальное зеркало rutor. В случае если у Вас заблокирован rutor или вдруг Вы не можете на него зайти, то Вы без труда сможете скачать бесплатно и без рекламы последние новинки кино, игр, сериалов и прочего у нас, на Rutor.in. Не нужно использовать прокси, чтобы зайти на рутор, достаточно воспользоваться нашим ресурсом. Все новые фильмы, игры, сериалы, книги и музыка за 2013 и 2014 годы через торрент бесплатно. Скачивайте фильмы в хорошем качестве, игры для пк, xbox, playstation без регистрации. У нас вы найдете новые Зарубежные сериалы и Русские сериалы 2013, 2014, 2015 годов. Оставайтесь с нами, качайте любимые фильмы, игры, сериалы, книги и музыку.