img image001 image001 image001 image001 image001 image001 image001 image001 image001 image001 image001 image001 image001 image001 image001

Planets Sun Sun Sun
Статистика раздачи
Автор: Nickolas3434 | Размер: 390.19 МБ | Добавлен: 31 мар 2014
Раздают: 256    Качают: 34
Скачать торрент
Скачать торрент
Описание торрента

СообщениеДобавлено: 31 мар 2014 


Информация
Название: Первая передача на НТВ. Автомобильная передача
Год выпуска: 2014
Жанр: Автопередача
Режиссер: Роман Иовица
Ведущий: Виктор Травин


Описание:
« Первая передача» — новый проект для автомобилистов и про автомобилистов. Ведущий «Первой передачи» — Виктор Травин, президент Коллегии правовой защиты автовладельцев. Уже много лет этот известный журналист защищает права автолюбителей. В автомире для него нет секретов и закрытых дверей. Всех, кто не представляет своей жизни без автомобиля, и тех, кто только задумывается о приобретении собственного авто, ждут ответы на самые актуальные вопросы.


К сожалению, мало кто из автовладельцев может похвастаться тем, что ни разу не попадал в неприятные ситуации. И речь не только о ДТП: некачественное обслуживание и сервис, подставы на дорогах и прочие неприятности — у большинства найдется несколько подобных историй в запасе. Всегда ли мы знаем, как вести себя в таких случаях? «Первая передача» не только расскажет о типичных проблемах автовладельцев, но и поможет их решить. С кого требовать возмещение ущерба, если вы попали в яму на дороге? Что делать, если вас обманули в автосалоне? Как заставить заплатить за ремонт, если вашу машину заправили некачественным бензином? Виктор Травин готов на деле доказать, что законы — это не дорога с односторонним движением, и любой владелец автомобиля, вооруженный знаниями, способен отстоять свои права. Благодаря «Первой передаче» правила станут понятнее, а дорога — безопаснее.
Отдельный блок программы будет посвящен самой, возможно, больной для российских автовладельцев теме — нашим дорогам. Если качество дороги оставляет желать лучшего, а проехать по ней можно только на вездеходе, зрители НТВ могут быть уверены — это не останется без внимания корреспондентов программы. Они не только найдут и покажут бездорожье, но и постараются ответить на вопрос, кто в ответе за плачевное состояние проезжей части в каждом конкретном случае.
Дорога полна неожиданностей: все самое необычное, попавшее в объективы любительских камер — трагичные, а порой нелепые и комичные дорожные происшествия. Ну и конечно — «Первая передача» не обойдется без новостей из автомобильного мира. Репортажи с главных международных автомобильных салонов, еженедельный обзор автособытий и автотрендов — в каждом выпуске программы.
Хотите из простого автолюбителя стать автопрофессионалом? Смотрите «Первую передачу» с Виктором Травиным каждое воскресенье на НТВ!


Репортаж: четыре человека погибли в лобовом столкновении. А у виновника – ни царапины. Где «заговоренный» будет ждать приговора?
Ездоки: лихач сбил девушку и позорно скрылся. Что с ним стало потом? А другой, сбив 11-летнего мальчика, не уехал. Что же он сделал, пока ребенок был жив?
Подержанные автомобили: какие машины ГИБДД массово снимает с регистрационного учета? И куда надо заглядывать при покупке иномарки?
Автоликбез: на каком расстоянии камера видеофиксации различает номера нарушителя? И надо ли платить штраф, если перед фотоловушкой не установлен предупреждающий дорожный знак?
А также Виктор Травин разъяснит:
– что грозит тому, кто бежал с места ДТП, но потом вернулся?
– лишат ли вас прав, если вдруг зрение ухудшилось?
– как избежать штрафа, если в вашей машине не застегиваются ремни безопасности?


Продолжительность: ~ 00:26:13
Выпущено:
Язык: Русский
Файл
Формат: TS
Качество: DVB
Видео: MPEG-TS, ~1898 kb/s, 720 x 576
Аудио: MP3, 2ch., 128 kb/s

Формат : MPEG-TS
Размер файла : 390 Мбайт
Продолжительность : 26 м.
Общий поток : 2080 Кбит/сек
Видео
Идентификатор : 69 (0x45)
Идентификатор меню : 1 (0x1)
Формат : AVC
Формат/Информация : Advanced Video Codec
Профиль формата : Main@L3.0
Параметр CABAC формата : Да
Параметр ReFrames формата : 3 кадра
Параметр GOP формата : M=4, N=24
Идентификатор кодека : 27
Продолжительность : 26 м.
Битрейт : 1848 Кбит/сек
Ширина : 720 пикселей
Высота : 576 пикселей
Соотношение сторон : 16:9
Частота кадров : 25,000 кадров/сек
Стандарт вещания : Component
Цветовое пространство : YUV
Субдискретизация насыщенности : 4:2:0
Битовая глубина : 8 бит
Тип развёртки : Чересстрочная
Порядок развёртки : Верхнее поле первое
Бит/(Пиксели*Кадры) : 0.178
Размер потока : 347 Мбайт (89%)
Основные цвета : BT.470-6 System B, BT.470-6 System G, BT.601-6 625, BT.1358 625, BT.1700 625 PAL, BT.1700 625 SECAM
Характеристики трансфера : BT.470-6 System B, BT.470-6 System G
Коэффициенты матрицы : BT.470-6 System B, BT.470-6 System G, BT.601-6 625, BT.1358 625, BT.1700 625 PAL, BT.1700 625 SECAM, IEC 61966-2-4 601
Аудио
Идентификатор : 68 (0x44)
Идентификатор меню : 1 (0x1)
Формат : MPEG Audio
Версия формата : Version 1
Профиль формата : Layer 2
Идентификатор кодека : 3
Продолжительность : 26 м.
Вид битрейта : Постоянный
Битрейт : 128 Кбит/сек
Каналы : 2 канала
Частота : 48,0 КГц
Метод сжатия : С потерями
Размер потока : 24,0 Мбайт (6%)
Язык : English






   Похожие торренты   Торрент   Размер 
В этой теме нет новых непрочитанных сообщений. Первая передача на НТВ. Автомобильная передача [06.04] (2014) IPTVRip

18 | 13

304.04 МБ

В этой теме нет новых непрочитанных сообщений. Первая передача на НТВ. Автомобильная передача [06.04] (2014) DVB

14 | 39

819.41 МБ

В этой теме нет новых непрочитанных сообщений. Первая передача [эфир от 18.05] (2014) IPTVRip

62 | 3

304.14 МБ

В этой теме нет новых непрочитанных сообщений. Первая передача [эфир от 23.11] (2014) SATRip

33 | 3

450.24 МБ

В этой теме нет новых непрочитанных сообщений. Первая передача [эфир от 07.12] (2014) SATRip

209 | 37

457.29 МБ

В этой теме нет новых непрочитанных сообщений. Первая передача [эфир от 21.09] (2014) SATRip

178 | 12

449.18 МБ

В этой теме нет новых непрочитанных сообщений. Первая передача [эфир от 30.11] (2014) SATRip

80 | 5

456.98 МБ




Вы не можете начинать темы
Вы не можете отвечать на сообщения
Вы не можете редактировать свои сообщения
Вы не можете удалять свои сообщения
Вы не можете добавлять вложения

Перейти:  
Для Мосгорсуда, Роскомнадзора и рекламодателей: mosgorsud-torrent[собачка]yandex.ru
 Вход
ppkBB3cker v.2 © 2008-2014 @ PPK
[ Time : 0.070s | 15 Queries | GZIP : Off ]

Торрент трекер RUTOR.IN, Не можете зайти на rutor.org? Какой новый адрес рутор? Какое зеркало рутор? Не работает rutor.org и зеркала? Тогда наш торрент специально для вас. Rutor.in неофициальное зеркало rutor. В случае если у Вас заблокирован rutor или вдруг Вы не можете на него зайти, то Вы без труда сможете скачать бесплатно и без рекламы последние новинки кино, игр, сериалов и прочего у нас, на Rutor.in. Не нужно использовать прокси, чтобы зайти на рутор, достаточно воспользоваться нашим ресурсом. Все новые фильмы, игры, сериалы, книги и музыка за 2013 и 2014 годы через торрент бесплатно. Скачивайте фильмы в хорошем качестве, игры для пк, xbox, playstation без регистрации. У нас вы найдете новые Зарубежные сериалы и Русские сериалы 2013, 2014, 2015 годов. Оставайтесь с нами, качайте любимые фильмы, игры, сериалы, книги и музыку.
cron