img image001 image001 image001 image001 image001 image001 image001 image001 image001 image001 image001 image001 image001 image001 image001 image001

Planets Sun Sun Sun
Статистика раздачи
Автор: Nickolas3434 | Размер: 684.84 МБ | Добавлен: 31 мар 2014
Раздают: 384    Качают: 96
Скачать торрент
Скачать торрент
Описание торрента

СообщениеДобавлено: 31 мар 2014 

Информация о фильме
Название: Интервью Президента Республики Беларусь Александра Лукашенко программе Шустер LIVE
Год выхода: 2014
Производство: Первый Национальный
Страна: Украина
Продолжительность программы: 01:15:10
Перевод: Не требуется

Описание:
Фрагмент передачи , выходящей на первом национальном канале Украины, который посвящен интервью Президента Республики Беларусь Лукашенко А.Г.

Файл
Кодек: XviD
Качество: DVBRip
Видео: 688x416, 25 к/с, 16:10, 1200 кбит/с
Звук: MP3, 64 кбит/с, 48 кгц, моно

General
Format : AVI
Format/Info : Audio Video Interleave
File size : 685 MiB
Duration : 1h 15mn
Overall bit rate : 1 274 Kbps
Writing application : VirtualDubMod 1.5.10.2 (build 2540/release)
Writing library : VirtualDubMod build 2540/release

Video
ID : 0
Format : MPEG-4 Visual
Format profile : Advanced Simple@L5
Format settings, BVOP : 2
Format settings, QPel : No
Format settings, GMC : No warppoints
Format settings, Matrix : Default (H.263)
Muxing mode : Packed bitstream
Codec ID : XVID
Codec ID/Hint : XviD
Duration : 1h 15mn
Bit rate : 1 200 Kbps
Width : 688 pixels
Height : 416 pixels
Display aspect ratio : 1.654
Frame rate : 25.000 fps
Color space : YUV
Chroma subsampling : 4:2:0
Bit depth : 8 bits
Scan type : Progressive
Compression mode : Lossy
Bits/(Pixel*Frame) : 0.168
Stream size : 645 MiB (94%)
Writing library : XviD 1.2.1 (UTC 2008-12-04)

Audio
ID : 1
Format : MPEG Audio
Format version : Version 1
Format profile : Layer 3
Codec ID : 55
Codec ID/Hint : MP3
Duration : 1h 15mn
Bit rate mode : Constant
Bit rate : 64.0 Kbps
Channel(s) : 1 channel
Sampling rate : 48.0 KHz
Compression mode : Lossy
Stream size : 34.4 MiB (5%)
Alignment : Aligned on interleaves
Interleave, duration : 40 ms (1.00 video frame)
Interleave, preload duration : 504 ms




   Похожие торренты   Торрент   Размер 
В этой теме нет новых непрочитанных сообщений. Встреча Президента Республики Беларусь A.Г. Лукашенко с руководителями крупнейших белорусских СМИ (2014) DVBRip

0 | 2

498.84 МБ

В этой теме нет новых непрочитанных сообщений. Новогоднее поздравление Президента Республики Беларусь Лукашенко А.Г. (2013) DVBRip

0 | 2

108.32 МБ

В этой теме нет новых непрочитанных сообщений. Церемония вручения премий Президента Республики Беларусь За духовное возрождение (2017) DVB от AND03AND

0 | 0

1.7 ГБ

В этой теме нет новых непрочитанных сообщений. Национальный академический народный хор Республики Беларусь им. Г.И. Цитовича (2014) DVB от AND03AND

5 | 2

1.27 ГБ

В этой теме нет новых непрочитанных сообщений. Академический ансамбль песни и танца Вооружённых сил Республики Беларусь. 75 лет (2014) SATRip от AND03AND

15 | 6

1.45 ГБ

В этой теме нет новых непрочитанных сообщений. Шустер Live [Эфир 28-29.03] (2014) DVB

213 | 42

4.43 ГБ

В этой теме нет новых непрочитанных сообщений. Военный парад и спортивно-молодежное шествие посвященные Дню Независимости Республики Беларусь (2014) SATRip от AND03AND

5 | 127

1.42 ГБ




Вы не можете начинать темы
Вы не можете отвечать на сообщения
Вы не можете редактировать свои сообщения
Вы не можете удалять свои сообщения
Вы не можете добавлять вложения

Перейти:  
 Вход
ppkBB3cker v.2 © 2008-2014 @ PPK
[ Time : 0.041s | 18 Queries | GZIP : Off ]

cron