img image001 image001 image001 image001 image001 image001 image001 image001 image001 image001 image001 image001 image001 image001 image001

Planets Sun Sun Sun
Статистика раздачи
Автор: Nickolas3434 | Размер: 439.42 МБ | Добавлен: 03 апр 2014
Раздают: 237    Качают: 38
Скачать торрент
Скачать торрент
Описание торрента

СообщениеДобавлено: 03 апр 2014 




Информация
Название: Без обмана. Отмороженная еда. Мясо и рыба
Год выпуска: 2014
Жанр: Документальный, расследование
Режиссер: Виктор Кармазин
Автор: Илья Рендаков


Описание:
Год от года в России растет потребление замороженных продуктов. Однако о их вреде и пользе до сих пор идут жаркие споры. Как определить качество замороженных продуктов? Что скрывается под коркой льда?


Продолжительность: ~ 00:38:48
Выпущено:
Перевод: Не требуется
Язык: Русский
Автор рипа: svlesin
Файл
Формат: AVI
Качество: SATRip
Видео: XviD, ~1450 kb/s, 640 x 480
Аудио: MP3, 2 ch, 128 Кбит/с

Формат : AVI
Формат/Информация : Audio Video Interleave
Размер файла : 439 Мбайт
Продолжительность : 38 м.
Общий поток : 1583 Кбит/сек
Программа кодирования : TMPGEnc Video Mastering Works 5 Version. 5.0.6.38
Библиотека кодирования : TMPGEnc Video Mastering Works 5 Version. 5.0.6.38
Видео
Идентификатор : 0
Формат : MPEG-4 Visual
Профиль формата : Advanced Simple@L5
Параметр BVOP формата : 2
Параметр QPel формата : Нет
Параметр GMC формата : Без точки перехода
Параметр матрицы формата : Default (H.263)
Режим смешивания : Сжатый битовый поток
Идентификатор кодека : XVID
Идентификатор кодека/Подсказка : XviD
Продолжительность : 38 м.
Битрейт : 1448 Кбит/сек
Ширина : 640 пикселей
Высота : 480 пикселей
Соотношение сторон : 4:3
Частота кадров : 25,000 кадров/сек
Цветовое пространство : YUV
Субдискретизация насыщенности : 4:2:0
Битовая глубина : 8 бит
Тип развёртки : Прогрессивная
Метод сжатия : С потерями
Бит/(Пиксели*Кадры) : 0.189
Размер потока : 402 Мбайт (91%)
Библиотека кодирования : XviD 64
Аудио
Идентификатор : 1
Формат : MPEG Audio
Версия формата : Version 1
Профиль формата : Layer 3
Режим : Joint stereo
Расширение режима : MS Stereo
Идентификатор кодека : 55
Идентификатор кодека/Подсказка : MP3
Продолжительность : 38 м.
Вид битрейта : Постоянный
Битрейт : 128 Кбит/сек
Каналы : 2 канала
Частота : 48,0 КГц
Метод сжатия : С потерями
Размер потока : 35,5 Мбайт (8%)
Выравнивание : Соединение по промежуткам
Продолжительность промежутка : 250 мс. (6,25 видеокадров)
Время предзагрузки промежутка : 192 мс.






   Похожие торренты   Торрент   Размер 
В этой теме нет новых непрочитанных сообщений. Без обмана: Копчёное мясо [28.01] (2014) SATRip

60 | 92

457.9 МБ

В этой теме нет новых непрочитанных сообщений. Без обмана: Санкции и рыба [24.11] (2014) SATRip

127 | 11

541.69 МБ

В этой теме нет новых непрочитанных сообщений. Без обмана: Еда с дымком. Копчёная рыба [27.01] (2014) SATRip

112 | 94

453.63 МБ

В этой теме нет новых непрочитанных сообщений. Среда обитания. Ни рыба ни мясо (2010) SATRip

0 | 2

500.93 МБ

В этой теме нет новых непрочитанных сообщений. Среда обитания. Ни рыба ни мясо [эфир от 26.05] (2013) SATRip

9 | 4

571.38 МБ

В этой теме нет новых непрочитанных сообщений. Мясо. История всероссийского обмана (2009) SATRip

5 | 9

1.37 ГБ

В этой теме нет новых непрочитанных сообщений. Готовим на костре: мясо, курица, рыба - Спецвыпуск № 23 (2010) PDF

403 | 14

5.24 МБ




Вы не можете начинать темы
Вы не можете отвечать на сообщения
Вы не можете редактировать свои сообщения
Вы не можете удалять свои сообщения
Вы не можете добавлять вложения

Перейти:  
Для Мосгорсуда, Роскомнадзора и рекламодателей: mosgorsud-torrent[собачка]yandex.ru
 Вход
ppkBB3cker v.2 © 2008-2014 @ PPK
[ Time : 0.126s | 15 Queries | GZIP : Off ]

Торрент трекер RUTOR.IN, Не можете зайти на rutor.org? Какой новый адрес рутор? Какое зеркало рутор? Не работает rutor.org и зеркала? Тогда наш торрент специально для вас. Rutor.in неофициальное зеркало rutor. В случае если у Вас заблокирован rutor или вдруг Вы не можете на него зайти, то Вы без труда сможете скачать бесплатно и без рекламы последние новинки кино, игр, сериалов и прочего у нас, на Rutor.in. Не нужно использовать прокси, чтобы зайти на рутор, достаточно воспользоваться нашим ресурсом. Все новые фильмы, игры, сериалы, книги и музыка за 2013 и 2014 годы через торрент бесплатно. Скачивайте фильмы в хорошем качестве, игры для пк, xbox, playstation без регистрации. У нас вы найдете новые Зарубежные сериалы и Русские сериалы 2013, 2014, 2015 годов. Оставайтесь с нами, качайте любимые фильмы, игры, сериалы, книги и музыку.
cron