img image001 image001 image001 image001 image001 image001 image001 image001 image001 image001 image001 image001 image001 image001 image001

Planets Sun Sun Sun
Статистика раздачи
Автор: Nickolas3434 | Размер: 7.55 ГБ | Добавлен: 04 апр 2014
Раздают: 29    Качают: 17
Скачать торрент
Скачать торрент
Описание торрента

СообщениеДобавлено: 04 апр 2014 

Морская полиция: Лос Анджелес / NCIS: Los Angeles


Год выпуска: 2012
Страна: США
Жанр: Криминал, драма
Продолжительность: ~00:43:00

Перевод: Любительский (двухголосый закадровый) Nikolas & Vernita
Русские субтитры: нет
Режиссёр: Дэвид Баррет, Стив Бойум, Терренс О`Хара

В ролях: Крис О’Доннелл, Даниэла Руа, Барретт Фоа, Линда Хант, LL Кул Джей, Эрик Кристиан Олсен, Рени Фелис Смит

Описание: NCIS: Los Angeles — драма о сложной работе — наблюдении под прикрытием. Отдел особых проектов — подразделение NCIS, которое занимается опасными преступниками, угрожающими безопасности всей страны. Используя фальшивые личности и последние технологии, команда специалистов работает под прикрытием, рискуя собственными жизнями ради достижения цели. Специальный агент Джи Каллен — хамелеон, который способен трансформироваться в кого угодно, чтобы проникнуть в преступный мир.

Его напарник — специальный агент Сэм Ханна, бывший морпех, который участвовал в боях в Афганистане и в Ираке, эксперт по наблюдению, который использует последние достижения мониторинга для наблюдения за полевыми агентами и связи с ними. Помогает команде специальный агент Кенси Блай, необыкновенно одаренная дочь погибшего морпеха, которая обожает риск, сопутствующий работе под прикрытием. Психолог Нэйт Гетц способен понять мотивы любого человека, он составляет профили преступников и наблюдает за психологическим состоянием оперативников. Эта небольшая команда полагается друг на друга и готова сделать все, чтобы защитить национальные интересы.
Сэмпл: http://sendfile.su/856719

Качество: WEB-DLRip
Формат: AVI
Видео кодек: XviD
Аудио кодек: MP3
Видео: 720x400 (16/9), 23.976 fps, ~1400 Kbps (0.20 bit/pixel)
Аудио 1: 44,1 kHz, MPEG Layer 3, 2 ch, ~192 kbps avg (Nikolas & Vernita)
Аудио 2: 44,1 kHz, MPEG Layer 3, 2 ch, ~192 kbps avg (Оригинал)

Чтобы начать докачку новой серии, пользователям необходимо сделать следующее:
(1) остановить скачивание,
(2) удалить старый торрент у себя из клиента (старые серии удалять не надо),
(3) скачать новый торрент и запустить его у себя в клиенте вместо старого, при этом указать клиенту путь в старую папку куда и должно происходить скачивание новых серий.

Ваш клиент при этом должен произвести хеширование (проверку) старой папки (если не производит сам - помогите ему сделать это), и будет докачивать только те серии которых у вас ещё нет. Старые серии при этом не удаляются, а продолжают раздаваться!

Eсли вы уже удалили старые серии, то предотвратить повторную закачку старых серий можно, отжав галочку в соответствующих местах при запуске нового торрента. По возможности, желательно не удалять старые серии как можно дольше чтобы релизёр не столько продолжал раздавать старые серии, а смог сконцентрироваться на новых.


General
Complete name : D:DownloadsTorrentNCIS LA s4NCIS.LA.S04E11.avi
Format : AVI
Format/Info : Audio Video Interleave
File size : 551 MiB
Duration : 42mn 54s
Overall bit rate : 1 796 Kbps
Writing application : VirtualDubMod 1.5.10.2 (build 2542/release)
Writing library : VirtualDubMod build 2542/release

Video
ID : 0
Format : MPEG-4 Visual
Format profile : Advanced Simple@L5
Format settings, BVOP : 2
Format settings, QPel : No
Format settings, GMC : No warppoints
Format settings, Matrix : Default (H.263)
Codec ID : XVID
Codec ID/Hint : XviD
Duration : 42mn 54s
Bit rate : 1 400 Kbps
Width : 720 pixels
Height : 400 pixels
Display aspect ratio : 16:9
Frame rate : 23.976 fps
Color space : YUV
Chroma subsampling : 4:2:0
Bit depth : 8 bits
Scan type : Progressive
Compression mode : Lossy
Bits/(Pixel*Frame) : 0.203
Stream size : 430 MiB (78%)
Writing library : XviD 1.2.1 (UTC 2008-12-04)

Audio #1
ID : 1
Format : MPEG Audio
Format version : Version 1
Format profile : Layer 3
Mode : Joint stereo
Codec ID : 55
Codec ID/Hint : MP3
Duration : 42mn 47s
Bit rate mode : Constant
Bit rate : 192 Kbps
Channel(s) : 2 channels
Sampling rate : 44.1 KHz
Compression mode : Lossy
Stream size : 58.7 MiB (11%)
Alignment : Aligned on interleaves
Interleave, duration : 42 ms (1.00 video frame)
Interleave, preload duration : 522 ms
Writing library : LAME3.96

Audio #2
ID : 2
Format : MPEG Audio
Format version : Version 1
Format profile : Layer 3
Mode : Joint stereo
Mode extension : MS Stereo
Codec ID : 55
Codec ID/Hint : MP3
Duration : 42mn 47s
Bit rate mode : Constant
Bit rate : 192 Kbps
Channel(s) : 2 channels
Sampling rate : 44.1 KHz
Compression mode : Lossy
Stream size : 58.7 MiB (11%)
Alignment : Aligned on interleaves
Interleave, duration : 42 ms (1.00 video frame)
Interleave, preload duration : 522 ms
Writing library : LAME3.96





   Похожие торренты   Торрент   Размер 
В этой теме нет новых непрочитанных сообщений. Морская полиция: Лос-Анджелес / NCIS: Los Angeles [04х01-10] (2012) WEB-DLRip

34 | 14

4.4 ГБ

В этой теме нет новых непрочитанных сообщений. Морская полиция: Лос-Анджелес / NCIS: Los Angeles [05х01-17] (2012) WEB-DLRip

70 | 40

9.83 ГБ

В этой теме нет новых непрочитанных сообщений. Морская Полиция: Лос-Анджелес / NCIS: Los Angeles [03x01-14 из 24] (2011-2012) WEB-DLRip от CasStudio | P | FOX

7 | 2

9.69 ГБ

В этой теме нет новых непрочитанных сообщений. Морская Полиция: Лос-Анджелес / NCIS: Los Angeles [03x01-15 из 24] (2011-2012) WEB-DLRip от CasStudio | P | FOX

1 | 5

10.38 ГБ

В этой теме нет новых непрочитанных сообщений. Морская Полиция: Лос-Анджелес / NCIS: Los Angeles [03x01-16 из 24] (2011-2012) WEB-DLRip от CasStudio | P | FOX

10 | 21

11.07 ГБ

В этой теме нет новых непрочитанных сообщений. Морская Полиция: Лос-Анджелес / NCIS: Los Angeles [03x01-17 из 24] (2011-2012) WEB-DLRip от CasStudio | P | FOX

9 | 7

11.77 ГБ

В этой теме нет новых непрочитанных сообщений. Морская Полиция: Лос-Анджелес / NCIS: Los Angeles [03x01-19 из 24] (2011-2012) WEB-DLRip от CasStudio | P | FOX

6 | 6

13.17 ГБ




Вы не можете начинать темы
Вы не можете отвечать на сообщения
Вы не можете редактировать свои сообщения
Вы не можете удалять свои сообщения
Вы не можете добавлять вложения

Перейти:  
Для Мосгорсуда, Роскомнадзора и рекламодателей: mosgorsud-torrent[собачка]yandex.ru
 Вход
ppkBB3cker v.2 © 2008-2014 @ PPK
[ Time : 0.044s | 14 Queries | GZIP : Off ]

Торрент трекер RUTOR.IN, Не можете зайти на rutor.org? Какой новый адрес рутор? Какое зеркало рутор? Не работает rutor.org и зеркала? Тогда наш торрент специально для вас. Rutor.in неофициальное зеркало rutor. В случае если у Вас заблокирован rutor или вдруг Вы не можете на него зайти, то Вы без труда сможете скачать бесплатно и без рекламы последние новинки кино, игр, сериалов и прочего у нас, на Rutor.in. Не нужно использовать прокси, чтобы зайти на рутор, достаточно воспользоваться нашим ресурсом. Все новые фильмы, игры, сериалы, книги и музыка за 2013 и 2014 годы через торрент бесплатно. Скачивайте фильмы в хорошем качестве, игры для пк, xbox, playstation без регистрации. У нас вы найдете новые Зарубежные сериалы и Русские сериалы 2013, 2014, 2015 годов. Оставайтесь с нами, качайте любимые фильмы, игры, сериалы, книги и музыку.