img image001 image001 image001 image001 image001 image001 image001 image001 image001 image001 image001 image001 image001 image001 image001

Planets Sun Sun Sun
Статистика раздачи
Автор: Nickolas3434 | Размер: 659.02 МБ | Добавлен: 05 апр 2014
Раздают: 435    Качают: 52
Скачать торрент
Скачать торрент
Описание торрента

СообщениеДобавлено: 05 апр 2014 




Информация
Название: Секретные территории. Кто придумал антимир?
Год выпуска: 2014
Жанр: Документальный, научно-познавательный, исследование, мистика, альтернативная история, псевдоистория


Описание:
Секретные территории это цикл документальных расследований (из проекта РЕАЛЬНОСТЬ) о наиболее драматических событиях современности и её знаковых фигурах: деятельность спецслужб, тайные страницы истории, уникальные архивы, новые разработки, фантастические явления, которым нельзя найти объяснение (аномальные зоны, вещие сны, сверхъестественные способности человека и НЛО)… Сюжеты большинства программ — это сенсация или переворот. Своими секретами с авторами фильмов делятся политики, сотрудники спецслужб, бизнесмены и прочие участники событий. Объект программ — парадоксальные события, оставившие след в нашей истории, а также тайные пружины, которые подчас приводят в действие механизм нашей жизни.


Нам известны не все измерения, существующие во Вселенной. Но уже сейчас некоторые ученые уверены в реальности параллельных миров. Кто и как попадает в наш мир из других измерений? Сможет ли человечество наладить связь с их обитателями?


Продолжительность: ~ 00:47:31
Выпущено:
Перевод: Не требуется
Язык: Русский
Файл
Формат: AVI
Качество: SATRip
Видео: XviD, ~1801 kb/s, 720x400
Аудио: MP3, 2 ch, 128 Кбит/с

Формат : AVI
Формат/Информация : Audio Video Interleave
Размер файла : 659 Мбайт
Продолжительность : 47 м.
Общий поток : 1939 Кбит/сек
Библиотека кодирования : VirtualDub build 32817/release
Видео
Идентификатор : 0
Формат : MPEG-4 Visual
Профиль формата : Advanced Simple@L5
Параметр BVOP формата : 2
Параметр QPel формата : Нет
Параметр GMC формата : Без точки перехода
Параметр матрицы формата : Default (MPEG)
Идентификатор кодека : XVID
Идентификатор кодека/Подсказка : XviD
Продолжительность : 47 м.
Битрейт : 1801 Кбит/сек
Ширина : 720 пикселей
Высота : 400 пикселей
Соотношение сторон : 16:9
Частота кадров : 25,000 кадров/сек
Цветовое пространство : YUV
Субдискретизация насыщенности : 4:2:0
Битовая глубина : 8 бит
Тип развёртки : Прогрессивная
Метод сжатия : С потерями
Бит/(Пиксели*Кадры) : 0.250
Размер потока : 612 Мбайт (93%)
Библиотека кодирования : XviD 1.2.1 (UTC 2008-12-04)
Аудио
Идентификатор : 1
Формат : MPEG Audio
Версия формата : Version 1
Профиль формата : Layer 3
Режим : Joint stereo
Расширение режима : MS Stereo
Идентификатор кодека : 55
Идентификатор кодека/Подсказка : MP3
Продолжительность : 47 м.
Вид битрейта : Постоянный
Битрейт : 128 Кбит/сек
Каналы : 2 канала
Частота : 48,0 КГц
Метод сжатия : С потерями
Размер потока : 43,5 Мбайт (7%)
Выравнивание : Разделение по промежуткам
Продолжительность промежутка : 40 мс. (1,00 видеокадр)
Время предзагрузки промежутка : 500 мс.






   Похожие торренты   Торрент   Размер 
В этой теме нет новых непрочитанных сообщений. Секретные территории [01-04] (2014) SATRip от Generalfilm

48 | 15

2.33 ГБ

В этой теме нет новых непрочитанных сообщений. Секретные территории [01-02] (2014) SATRip от Generalfilm

56 | 13

1.16 ГБ

В этой теме нет новых непрочитанных сообщений. Секретные территории [01-05] (2014) SATRip от Generalfilm

101 | 65

2.91 ГБ

В этой теме нет новых непрочитанных сообщений. Секретные территории [01-03] (2014) SATRip от Generalfilm

70 | 28

1.75 ГБ

В этой теме нет новых непрочитанных сообщений. Секретные территории [01] (2014) SATRip от Generalfilm

198 | 32

599.17 МБ

В этой теме нет новых непрочитанных сообщений. Секретные территории. Скрытые под водой [19.09] (2014) SATRip

208 | 21

666.16 МБ

В этой теме нет новых непрочитанных сообщений. Секретные территории. Древнекитайская Русь [03.10] (2014) SATRip

285 | 24

663.08 МБ




Вы не можете начинать темы
Вы не можете отвечать на сообщения
Вы не можете редактировать свои сообщения
Вы не можете удалять свои сообщения
Вы не можете добавлять вложения

Перейти:  
Для Мосгорсуда, Роскомнадзора и рекламодателей: mosgorsud-torrent[собачка]yandex.ru
 Вход
ppkBB3cker v.2 © 2008-2014 @ PPK
[ Time : 0.050s | 14 Queries | GZIP : Off ]

Торрент трекер RUTOR.IN, Не можете зайти на rutor.org? Какой новый адрес рутор? Какое зеркало рутор? Не работает rutor.org и зеркала? Тогда наш торрент специально для вас. Rutor.in неофициальное зеркало rutor. В случае если у Вас заблокирован rutor или вдруг Вы не можете на него зайти, то Вы без труда сможете скачать бесплатно и без рекламы последние новинки кино, игр, сериалов и прочего у нас, на Rutor.in. Не нужно использовать прокси, чтобы зайти на рутор, достаточно воспользоваться нашим ресурсом. Все новые фильмы, игры, сериалы, книги и музыка за 2013 и 2014 годы через торрент бесплатно. Скачивайте фильмы в хорошем качестве, игры для пк, xbox, playstation без регистрации. У нас вы найдете новые Зарубежные сериалы и Русские сериалы 2013, 2014, 2015 годов. Оставайтесь с нами, качайте любимые фильмы, игры, сериалы, книги и музыку.