img image001 image001 image001 image001 image001 image001 image001 image001 image001 image001 image001 image001 image001 image001 image001

Planets Sun Sun Sun
Статистика раздачи
Автор: Nickolas3434 | Размер: 661.39 МБ | Добавлен: 05 апр 2014
Раздают: 227    Качают: 48
Скачать торрент
Скачать торрент
Описание торрента

СообщениеДобавлено: 05 апр 2014 




[Информация
Название: Странное дело. Тайные знаки
Год выпуска: 2014
Жанр: Документальный, научно-познавательный, паранормальный, исследование, история
Режиссер: Александр Однако


Описание:
Каждая программа - это отдельный документальный фильм, который расскажет об удивительных и труднообъяснимых явлениях. Раз в неделю, зрители станут свидетелями: аномальных происшествий и загадок, неопознанных летающих объектах и странных существах, а также сверхъестественных способностях человека.


Науке неведом термин "судьба". Учёные не оперируют понятием "седьмое чувство" и отрицают наличие у человека органа, отвечающего за интуицию. Однако каждому из нас знакомо состояние предчувствия. Как его объяснить? И предопределены ли наши поступки?


Продолжительность: ~ 00:47:31
Выпущено:
Перевод: Не требуется
Язык: Русский
Файл
Формат: AVI
Качество: SATRip
Видео: XviD, ~1800 kb/s, 720x400
Аудио: MP3, 2 ch, 128 Кбит/с

Формат : AVI
Формат/Информация : Audio Video Interleave
Размер файла : 661 Мбайт
Продолжительность : 47 м.
Общий поток : 1939 Кбит/сек
Библиотека кодирования : VirtualDub build 32817/release
Видео
Идентификатор : 0
Формат : MPEG-4 Visual
Профиль формата : Advanced Simple@L5
Параметр BVOP формата : 2
Параметр QPel формата : Нет
Параметр GMC формата : Без точки перехода
Параметр матрицы формата : Default (MPEG)
Идентификатор кодека : XVID
Идентификатор кодека/Подсказка : XviD
Продолжительность : 47 м.
Битрейт : 1801 Кбит/сек
Ширина : 720 пикселей
Высота : 400 пикселей
Соотношение сторон : 16:9
Частота кадров : 25,000 кадров/сек
Цветовое пространство : YUV
Субдискретизация насыщенности : 4:2:0
Битовая глубина : 8 бит
Тип развёртки : Прогрессивная
Метод сжатия : С потерями
Бит/(Пиксели*Кадры) : 0.250
Размер потока : 614 Мбайт (93%)
Библиотека кодирования : XviD 1.2.1 (UTC 2008-12-04)
Аудио
Идентификатор : 1
Формат : MPEG Audio
Версия формата : Version 1
Профиль формата : Layer 3
Режим : Joint stereo
Расширение режима : MS Stereo
Идентификатор кодека : 55
Идентификатор кодека/Подсказка : MP3
Продолжительность : 47 м.
Вид битрейта : Постоянный
Битрейт : 128 Кбит/сек
Каналы : 2 канала
Частота : 48,0 КГц
Метод сжатия : С потерями
Размер потока : 43,7 Мбайт (7%)
Выравнивание : Разделение по промежуткам
Продолжительность промежутка : 40 мс. (1,00 видеокадр)
Время предзагрузки промежутка : 500 мс.






   Похожие торренты   Торрент   Размер 
В этой теме нет новых непрочитанных сообщений. Странное дело - Тайные общества [30.03] (2012) SATRip

11 | 3

524.42 МБ

В этой теме нет новых непрочитанных сообщений. Странное дело [01] (2014) SATRip от Generalfilm

61 | 14

599.95 МБ

В этой теме нет новых непрочитанных сообщений. Странное дело [01-02] (2014) SATRip от Generalfilm

38 | 15

1.17 ГБ

В этой теме нет новых непрочитанных сообщений. Странное дело [01-04] (2014) SATRip от Generalfilm

48 | 21

2.35 ГБ

В этой теме нет новых непрочитанных сообщений. Странное дело [01-03] (2014) SATRip от Generalfilm

44 | 34

1.76 ГБ

В этой теме нет новых непрочитанных сообщений. Странное дело [01-05] (2014) SATRip от Generalfilm

93 | 49

2.94 ГБ

В этой теме нет новых непрочитанных сообщений. Странное дело. Космические странники [03.10] (2014) SATRip

552 | 52

670.88 МБ




Вы не можете начинать темы
Вы не можете отвечать на сообщения
Вы не можете редактировать свои сообщения
Вы не можете удалять свои сообщения
Вы не можете добавлять вложения

Перейти:  
Для Мосгорсуда, Роскомнадзора и рекламодателей: mosgorsud-torrent[собачка]yandex.ru
 Вход
ppkBB3cker v.2 © 2008-2014 @ PPK
[ Time : 0.025s | 14 Queries | GZIP : Off ]

Торрент трекер RUTOR.IN, Не можете зайти на rutor.org? Какой новый адрес рутор? Какое зеркало рутор? Не работает rutor.org и зеркала? Тогда наш торрент специально для вас. Rutor.in неофициальное зеркало rutor. В случае если у Вас заблокирован rutor или вдруг Вы не можете на него зайти, то Вы без труда сможете скачать бесплатно и без рекламы последние новинки кино, игр, сериалов и прочего у нас, на Rutor.in. Не нужно использовать прокси, чтобы зайти на рутор, достаточно воспользоваться нашим ресурсом. Все новые фильмы, игры, сериалы, книги и музыка за 2013 и 2014 годы через торрент бесплатно. Скачивайте фильмы в хорошем качестве, игры для пк, xbox, playstation без регистрации. У нас вы найдете новые Зарубежные сериалы и Русские сериалы 2013, 2014, 2015 годов. Оставайтесь с нами, качайте любимые фильмы, игры, сериалы, книги и музыку.