img image001 image001 image001 image001 image001 image001 image001 image001 image001 image001 image001 image001 image001 image001 image001

Planets Sun Sun Sun
Статистика раздачи
Автор: Nickolas3434 | Размер: 651.88 МБ | Добавлен: 06 апр 2014
Раздают: 121    Качают: 79
Скачать торрент
Скачать торрент
Описание торрента

СообщениеДобавлено: 06 апр 2014 

Информация о фильме
Название: Тайна катастрофы на Волге. Роковой круиз
Год выхода: 2006
Жанр: Документальный
Режиссер: Петр Зеленов
В ролях: Участники, свидетели событий.
Жанр: Документальный,драма, расследование, история
О фильме:
В результате столкновения теплохода с мостом, у судна была полностью снесена рубка, кинозал, срезаны дымовые трубы. Погибло 176 человек. В качестве основных причин катастрофы по официальной версии стали халатность команды теплохода и железнодорожников. Первым инкриминировали халатность при несении вахты и ошибочный выбор для прохода теплохода несудоходного пролета. Вторым - неспособность обеспечить правильную световую сигнализацию на нужном пролете моста. Но общей версией стал пресловутый "человеческий фактор".
Страна: Россия
Студия: Вертов и К
Продолжительность: 00:44:03
Перевод: Не требуется

Файл
Кодек: Xvid (FourCC заменен на DivX)
Качество: SATRip
Видео: 704х432, 1867 Kbps, 25.000 fps
Звук: AC3 2.0, 192 Kbps, 2 channels
Субтитры: Языки и типы субтитров

Семпл



General
Complete name : L:Pshichko66Na zapis'Документальный фильмыGibel' teplohoda Suvorov.avi
Format : AVI
Format/Info : Audio Video Interleave
File size : 652 MiB
Duration : 44mn 3s
Overall bit rate : 2 068 Kbps
Writing application : VirtualDubMod 1.5.10.2 (build 2540/release)
Writing library : VirtualDubMod build 2540/release

Video
ID : 0
Format : MPEG-4 Visual
Format profile : Advanced Simple@L5
Format settings, BVOP : 1
Format settings, QPel : No
Format settings, GMC : No warppoints
Format settings, Matrix : Default (MPEG)
Codec ID : DIVX
Codec ID/Info : Project Mayo
Codec ID/Hint : DivX 4
Duration : 44mn 3s
Bit rate : 1 867 Kbps
Width : 704 pixels
Height : 432 pixels
Display aspect ratio : 16:10
Frame rate : 25.000 fps
Color space : YUV
Chroma subsampling : 4:2:0
Bit depth : 8 bits
Scan type : Progressive
Compression mode : Lossy
Bits/(Pixel*Frame) : 0.246
Stream size : 588 MiB (90%)
Writing library : XviD 64

Audio
ID : 1
Format : AC-3
Format/Info : Audio Coding 3
Mode extension : CM (complete main)
Format settings, Endianness : Big
Codec ID : 2000
Duration : 44mn 3s
Bit rate mode : Constant
Bit rate : 192 Kbps
Channel count : 2 channels
Channel positions : Front: L R
Sampling rate : 48.0 KHz
Bit depth : 16 bits
Compression mode : Lossy
Stream size : 60.5 MiB (9%)
Alignment : Split accross interleaves
Interleave, duration : 40 ms (1.00 video frame)
Interleave, preload duration : 500 ms

Релиз от: Pshichko66



   Похожие торренты   Торрент   Размер 
В этой теме нет новых непрочитанных сообщений. ЧП. Расследование. Роковой круиз [эфир от 12.07] (2011) SATRip

0 | 15

360.97 МБ

В этой теме нет новых непрочитанных сообщений. Discovery: Кровь для богов. Предотвращение катастрофы / Discovery: Blood for the Gods (2009) SATRip от Pshichko66

26 | 4

652.18 МБ

В этой теме нет новых непрочитанных сообщений. Михаил Лермонтов. Последний круиз (2004) IPTVRip Pshichko66

53 | 1

799.07 МБ

В этой теме нет новых непрочитанных сообщений. Тайна гибели футбольной команды Пахтакор (2005) SATRip от Pshichko66

235 | 26

652.27 МБ

В этой теме нет новых непрочитанных сообщений. Пусть говорят. Трагедия на Волге [эфир 11.07] (2011) SATRip

0 | 2

593.32 МБ

В этой теме нет новых непрочитанных сообщений. Убийца с зонтиком / The Umbrella Assassin (2006) SATRip от Pshichko66

14 | 14

702.51 МБ

В этой теме нет новых непрочитанных сообщений. Великая тайна воды (2006) SATrip

17 | 3

638.13 МБ




Вы не можете начинать темы
Вы не можете отвечать на сообщения
Вы не можете редактировать свои сообщения
Вы не можете удалять свои сообщения
Вы не можете добавлять вложения

Перейти:  
Для Мосгорсуда, Роскомнадзора и рекламодателей: mosgorsud-torrent[собачка]yandex.ru
 Вход
ppkBB3cker v.2 © 2008-2014 @ PPK
[ Time : 1.101s | 15 Queries | GZIP : Off ]

Торрент трекер RUTOR.IN, Не можете зайти на rutor.org? Какой новый адрес рутор? Какое зеркало рутор? Не работает rutor.org и зеркала? Тогда наш торрент специально для вас. Rutor.in неофициальное зеркало rutor. В случае если у Вас заблокирован rutor или вдруг Вы не можете на него зайти, то Вы без труда сможете скачать бесплатно и без рекламы последние новинки кино, игр, сериалов и прочего у нас, на Rutor.in. Не нужно использовать прокси, чтобы зайти на рутор, достаточно воспользоваться нашим ресурсом. Все новые фильмы, игры, сериалы, книги и музыка за 2013 и 2014 годы через торрент бесплатно. Скачивайте фильмы в хорошем качестве, игры для пк, xbox, playstation без регистрации. У нас вы найдете новые Зарубежные сериалы и Русские сериалы 2013, 2014, 2015 годов. Оставайтесь с нами, качайте любимые фильмы, игры, сериалы, книги и музыку.