img image001 image001 image001 image001 image001 image001 image001 image001 image001 image001 image001 image001 image001 image001 image001

Planets Sun Sun Sun
Статистика раздачи
Автор: Nickolas3434 | Размер: 819.41 МБ | Добавлен: 06 апр 2014
Раздают: 14    Качают: 39
Скачать торрент
Скачать торрент
Описание торрента

СообщениеДобавлено: 06 апр 2014 


Информация
Название: Первая передача на НТВ. Автомобильная передача
Год выпуска: 2014
Жанр: Автопередача
Режиссер: Роман Иовица
Ведущий: Виктор Травин


Описание:
« Первая передача» — новый проект для автомобилистов и про автомобилистов. Ведущий «Первой передачи» — Виктор Травин, президент Коллегии правовой защиты автовладельцев. Уже много лет этот известный журналист защищает права автолюбителей. В автомире для него нет секретов и закрытых дверей. Всех, кто не представляет своей жизни без автомобиля, и тех, кто только задумывается о приобретении собственного авто, ждут ответы на самые актуальные вопросы.


К сожалению, мало кто из автовладельцев может похвастаться тем, что ни разу не попадал в неприятные ситуации. И речь не только о ДТП: некачественное обслуживание и сервис, подставы на дорогах и прочие неприятности — у большинства найдется несколько подобных историй в запасе. Всегда ли мы знаем, как вести себя в таких случаях? «Первая передача» не только расскажет о типичных проблемах автовладельцев, но и поможет их решить. С кого требовать возмещение ущерба, если вы попали в яму на дороге? Что делать, если вас обманули в автосалоне? Как заставить заплатить за ремонт, если вашу машину заправили некачественным бензином? Виктор Травин готов на деле доказать, что законы — это не дорога с односторонним движением, и любой владелец автомобиля, вооруженный знаниями, способен отстоять свои права. Благодаря «Первой передаче» правила станут понятнее, а дорога — безопаснее.
Отдельный блок программы будет посвящен самой, возможно, больной для российских автовладельцев теме — нашим дорогам. Если качество дороги оставляет желать лучшего, а проехать по ней можно только на вездеходе, зрители НТВ могут быть уверены — это не останется без внимания корреспондентов программы. Они не только найдут и покажут бездорожье, но и постараются ответить на вопрос, кто в ответе за плачевное состояние проезжей части в каждом конкретном случае.
Дорога полна неожиданностей: все самое необычное, попавшее в объективы любительских камер — трагичные, а порой нелепые и комичные дорожные происшествия. Ну и конечно — «Первая передача» не обойдется без новостей из автомобильного мира. Репортажи с главных международных автомобильных салонов, еженедельный обзор автособытий и автотрендов — в каждом выпуске программы.
Хотите из простого автолюбителя стать автопрофессионалом? Смотрите «Первую передачу» с Виктором Травиным каждое воскресенье на НТВ!


Главные свидетели – видеорегистраторы пострадавших. Три беспредельщика с битами гоняли по городу. Что они натворили? И как удалось их остановить?
Трезвость — не оправдание! Виновник смертельного тарана с холодным расчетом жал на педаль, но потерял управление. Как его наказали?
В ДТП на обледеневшей трассе погиб водитель. Кого за это осудили?
Автоликбез: законно ли требование инспектора, чтобы водитель вышел из машины? И вправе ли он силой вытаскивать нарушителя? В каком случае сотрудник ГАИ вправе применить наручники, дубинку, и, наконец, открыть огонь?
А также Виктор Травин разъяснит:
– вправе ли полицейский стрелять в людных местах?
– кто может снести ограждение, если во дворе сосед застолбил место для своей машины?
– где узнать, кому конкретно предъявлять иск, если машину вы повредили в дорожной яме?
– как по ОСАГО возместить утрату товарной стоимости битой машины?
– обязаны ли вам отдать детали, замененные на ремонте по страховке КАСКО?
– вправе ли официальный дилер снять вашу машину с гарантийного обслуживания, если мелкий ремонт вы провели «в гараже у дяди Васи»?
– как со штрафстоянки забрать автомобиль, если его поместили туда из-за неисправности?
– нужно ли проходить техосмотр, если в сервисной книжке вашего авто есть отметки о регулярном техническом обслуживании?
– как накажут ли водителя, который не вписался в ворота своего собственного гаража?


Продолжительность: ~ 00:25:18
Выпущено:
Язык: Русский
Автор рипа: ramzesII
Файл
Формат: TS
Качество: DVB
Видео: MPEG-TS, ~4109 kb/s, 720 x 576
Аудио: MP3, 2ch., 192 kb/s

Формат : MPEG-TS
Размер файла : 819 Мбайт
Продолжительность : 25 м.
Режим общего битрейта : Переменный
Общий поток : 4527 Кбит/сек
Видео
Идентификатор : 69 (0x45)
Идентификатор меню : 1 (0x1)
Формат : MPEG Video
Версия формата : Version 2
Профиль формата : Main@Main
Параметр BVOP формата : Нет
Параметр матрицы формата : Выборочная
Идентификатор кодека : 2
Продолжительность : 25 м.
Вид битрейта : Переменный
Битрейт : 4109 Кбит/сек
Максимальный битрейт : 15,0 Мбит/сек
Ширина : 720 пикселей
Высота : 576 пикселей
Соотношение сторон : 4:3
Частота кадров : 25,000 кадров/сек
Стандарт вещания : PAL
Цветовое пространство : YUV
Субдискретизация насыщенности : 4:2:0
Битовая глубина : 8 бит
Метод сжатия : С потерями
Бит/(Пиксели*Кадры) : 0.396
Размер потока : 744 Мбайт (91%)
Аудио
Идентификатор : 68 (0x44)
Идентификатор меню : 1 (0x1)
Формат : MPEG Audio
Версия формата : Version 1
Профиль формата : Layer 2
Идентификатор кодека : 3
Продолжительность : 25 м.
Вид битрейта : Постоянный
Битрейт : 192 Кбит/сек
Каналы : 2 канала
Частота : 48,0 КГц
Метод сжатия : С потерями
Задержка видео : 4 мс.
Размер потока : 34,8 Мбайт (4%)
Язык : Russian






   Похожие торренты   Торрент   Размер 
В этой теме нет новых непрочитанных сообщений. Первая передача на НТВ. Автомобильная передача [06.04] (2014) IPTVRip

18 | 13

304.04 МБ

В этой теме нет новых непрочитанных сообщений. Первая передача на НТВ. Автомобильная передача [30.03] (2014) DVB

256 | 34

390.19 МБ

В этой теме нет новых непрочитанных сообщений. Первая передача [эфир от 27.04] (2014) SATRip

139 | 11

294.21 МБ

В этой теме нет новых непрочитанных сообщений. Первая передача [эфир от 23.02] (2014) SATRip

43 | 7

298.12 МБ

В этой теме нет новых непрочитанных сообщений. Первая передача [эфир от 30.11] (2014) SATRip

80 | 5

456.98 МБ

В этой теме нет новых непрочитанных сообщений. Первая передача [эфир от 18.05] (2014) IPTVRip

62 | 3

304.14 МБ

В этой теме нет новых непрочитанных сообщений. Первая передача [эфир от 02.03] (2014) SATRip

176 | 17

304.34 МБ




Вы не можете начинать темы
Вы не можете отвечать на сообщения
Вы не можете редактировать свои сообщения
Вы не можете удалять свои сообщения
Вы не можете добавлять вложения

Перейти:  
Для Мосгорсуда, Роскомнадзора и рекламодателей: mosgorsud-torrent[собачка]yandex.ru
 Вход
ppkBB3cker v.2 © 2008-2014 @ PPK
[ Time : 0.134s | 14 Queries | GZIP : Off ]

Торрент трекер RUTOR.IN, Не можете зайти на rutor.org? Какой новый адрес рутор? Какое зеркало рутор? Не работает rutor.org и зеркала? Тогда наш торрент специально для вас. Rutor.in неофициальное зеркало rutor. В случае если у Вас заблокирован rutor или вдруг Вы не можете на него зайти, то Вы без труда сможете скачать бесплатно и без рекламы последние новинки кино, игр, сериалов и прочего у нас, на Rutor.in. Не нужно использовать прокси, чтобы зайти на рутор, достаточно воспользоваться нашим ресурсом. Все новые фильмы, игры, сериалы, книги и музыка за 2013 и 2014 годы через торрент бесплатно. Скачивайте фильмы в хорошем качестве, игры для пк, xbox, playstation без регистрации. У нас вы найдете новые Зарубежные сериалы и Русские сериалы 2013, 2014, 2015 годов. Оставайтесь с нами, качайте любимые фильмы, игры, сериалы, книги и музыку.