img image001 image001 image001 image001 image001 image001 image001 image001 image001 image001 image001 image001 image001 image001 image001

Planets Sun Sun Sun
Статистика раздачи
Автор: Nickolas3434 | Размер: 304.04 МБ | Добавлен: 06 апр 2014
Раздают: 18    Качают: 13
Скачать торрент
Скачать торрент
Описание торрента

СообщениеДобавлено: 06 апр 2014 


Информация
Название: Первая передача на НТВ. Автомобильная передача
Год выпуска: 2014
Жанр: Автопередача
Режиссер: Роман Иовица
Ведущий: Виктор Травин


Описание:
« Первая передача» — новый проект для автомобилистов и про автомобилистов. Ведущий «Первой передачи» — Виктор Травин, президент Коллегии правовой защиты автовладельцев. Уже много лет этот известный журналист защищает права автолюбителей. В автомире для него нет секретов и закрытых дверей. Всех, кто не представляет своей жизни без автомобиля, и тех, кто только задумывается о приобретении собственного авто, ждут ответы на самые актуальные вопросы.


К сожалению, мало кто из автовладельцев может похвастаться тем, что ни разу не попадал в неприятные ситуации. И речь не только о ДТП: некачественное обслуживание и сервис, подставы на дорогах и прочие неприятности — у большинства найдется несколько подобных историй в запасе. Всегда ли мы знаем, как вести себя в таких случаях? «Первая передача» не только расскажет о типичных проблемах автовладельцев, но и поможет их решить. С кого требовать возмещение ущерба, если вы попали в яму на дороге? Что делать, если вас обманули в автосалоне? Как заставить заплатить за ремонт, если вашу машину заправили некачественным бензином? Виктор Травин готов на деле доказать, что законы — это не дорога с односторонним движением, и любой владелец автомобиля, вооруженный знаниями, способен отстоять свои права. Благодаря «Первой передаче» правила станут понятнее, а дорога — безопаснее.
Отдельный блок программы будет посвящен самой, возможно, больной для российских автовладельцев теме — нашим дорогам. Если качество дороги оставляет желать лучшего, а проехать по ней можно только на вездеходе, зрители НТВ могут быть уверены — это не останется без внимания корреспондентов программы. Они не только найдут и покажут бездорожье, но и постараются ответить на вопрос, кто в ответе за плачевное состояние проезжей части в каждом конкретном случае.
Дорога полна неожиданностей: все самое необычное, попавшее в объективы любительских камер — трагичные, а порой нелепые и комичные дорожные происшествия. Ну и конечно — «Первая передача» не обойдется без новостей из автомобильного мира. Репортажи с главных международных автомобильных салонов, еженедельный обзор автособытий и автотрендов — в каждом выпуске программы.
Хотите из простого автолюбителя стать автопрофессионалом? Смотрите «Первую передачу» с Виктором Травиным каждое воскресенье на НТВ!


Главные свидетели – видеорегистраторы пострадавших. Три беспредельщика с битами гоняли по городу. Что они натворили? И как удалось их остановить?
Трезвость — не оправдание! Виновник смертельного тарана с холодным расчетом жал на педаль, но потерял управление. Как его наказали?
В ДТП на обледеневшей трассе погиб водитель. Кого за это осудили?
Автоликбез: законно ли требование инспектора, чтобы водитель вышел из машины? И вправе ли он силой вытаскивать нарушителя? В каком случае сотрудник ГАИ вправе применить наручники, дубинку, и, наконец, открыть огонь?
А также Виктор Травин разъяснит:
– вправе ли полицейский стрелять в людных местах?
– кто может снести ограждение, если во дворе сосед застолбил место для своей машины?
– где узнать, кому конкретно предъявлять иск, если машину вы повредили в дорожной яме?
– как по ОСАГО возместить утрату товарной стоимости битой машины?
– обязаны ли вам отдать детали, замененные на ремонте по страховке КАСКО?
– вправе ли официальный дилер снять вашу машину с гарантийного обслуживания, если мелкий ремонт вы провели «в гараже у дяди Васи»?
– как со штрафстоянки забрать автомобиль, если его поместили туда из-за неисправности?
– нужно ли проходить техосмотр, если в сервисной книжке вашего авто есть отметки о регулярном техническом обслуживании?
– как накажут ли водителя, который не вписался в ворота своего собственного гаража?


Продолжительность: ~ 00:25:18
Выпущено:
Язык: Русский
Автор рипа: ramzesII
Файл
Формат: AVI
Качество: IPTVRip
Видео: XviD, ~1544 kb/s, 720 x 464
Аудио: MP3, 2ch., 128 kb/s

Формат : AVI
Формат/Информация : Audio Video Interleave
Размер файла : 304 Мбайт
Продолжительность : 25 м.
Общий поток : 1680 Кбит/сек
Программа кодирования : TMPGEnc Video Mastering Works 5 Version. 5.0.6.38
Библиотека кодирования : TMPGEnc Video Mastering Works 5 Version. 5.0.6.38
Видео
Идентификатор : 0
Формат : MPEG-4 Visual
Профиль формата : Advanced Simple@L5
Параметр BVOP формата : 2
Параметр QPel формата : Нет
Параметр GMC формата : Без точки перехода
Параметр матрицы формата : Default (MPEG)
Идентификатор кодека : XVID
Идентификатор кодека/Подсказка : XviD
Продолжительность : 25 м.
Битрейт : 1544 Кбит/сек
Ширина : 720 пикселей
Высота : 464 пикселя
Соотношение сторон : 1,552
Частота кадров : 25,000 кадров/сек
Цветовое пространство : YUV
Субдискретизация насыщенности : 4:2:0
Битовая глубина : 8 бит
Тип развёртки : Прогрессивная
Метод сжатия : С потерями
Бит/(Пиксели*Кадры) : 0.185
Размер потока : 279 Мбайт (92%)
Библиотека кодирования : XviD 64
Аудио
Идентификатор : 1
Формат : MPEG Audio
Версия формата : Version 1
Профиль формата : Layer 3
Режим : Joint stereo
Расширение режима : MS Stereo
Идентификатор кодека : 55
Идентификатор кодека/Подсказка : MP3
Продолжительность : 25 м.
Вид битрейта : Постоянный
Битрейт : 128 Кбит/сек
Каналы : 2 канала
Частота : 48,0 КГц
Метод сжатия : С потерями
Размер потока : 23,2 Мбайт (8%)
Выравнивание : Соединение по промежуткам
Продолжительность промежутка : 250 мс. (6,25 видеокадров)
Время предзагрузки промежутка : 192 мс.






   Похожие торренты   Торрент   Размер 
В этой теме нет новых непрочитанных сообщений. Первая передача на НТВ. Автомобильная передача [06.04] (2014) DVB

14 | 39

819.41 МБ

В этой теме нет новых непрочитанных сообщений. Первая передача на НТВ. Автомобильная передача [30.03] (2014) DVB

256 | 34

390.19 МБ

В этой теме нет новых непрочитанных сообщений. Первая передача [эфир от 18.05] (2014) IPTVRip

62 | 3

304.14 МБ

В этой теме нет новых непрочитанных сообщений. Первая передача за 22 мая (2011) IPTVRip

0 | 3

272.86 МБ

В этой теме нет новых непрочитанных сообщений. Первая передача [15.04] (2012) IPTVRip

0 | 1

327.58 МБ

В этой теме нет новых непрочитанных сообщений. Первая передача за 30 января (2011) IPTVRip

0 | 2

308.47 МБ

В этой теме нет новых непрочитанных сообщений. Первая передача за 6 февраля (2011) IPTVRip

0 | 2

301.8 МБ




Вы не можете начинать темы
Вы не можете отвечать на сообщения
Вы не можете редактировать свои сообщения
Вы не можете удалять свои сообщения
Вы не можете добавлять вложения

Перейти:  
Для Мосгорсуда, Роскомнадзора и рекламодателей: mosgorsud-torrent[собачка]yandex.ru
 Вход
ppkBB3cker v.2 © 2008-2014 @ PPK
[ Time : 0.045s | 15 Queries | GZIP : Off ]

cron