img image001 image001 image001 image001 image001 image001 image001 image001 image001 image001 image001 image001 image001 image001 image001

Planets Sun Sun Sun
Статистика раздачи
Автор: Nickolas3434 | Размер: 302.5 МБ | Добавлен: 07 апр 2014
Раздают: 112    Качают: 27
Скачать торрент
Скачать торрент
Описание торрента

СообщениеДобавлено: 07 апр 2014 


Информация
Название: Чудо техники с Сергеем Малоземовым
Год выпуска: 2014
Жанр: Телепередача
Ведущий: Сергей Малоземов


Описание:
«Чудо техники» — это доходчивый и интересный рассказ о новейших научных разработках, которые способны поменять или уже меняют нашу повседневную жизнь. Автор проекта — Сергей Малозёмов — хорошо знаком зрителям НТВ по репортажам программы «Сегодня», касающимся новых технологий, гаджетов, медицины. Он в курсе последних научных разработок и одним из первых узнает о значимых изобретениях. Теперь обо всем, что происходит на передовой научно-технического прогресса, узнают и зрители НТВ. Новинки и открытия со всего мира создатели проекта подвергнут самому тщательному анализу: что-то протестируют на себе или специально приглашенных героях, узнают мнения экспертов, постараются проникнуть в саму суть вещей при помощи компьютерной графики и экспериментов в лаборатории. Когда можно будет попробовать мясо из пробирки и каково оно будет на вкус? Можно ли доверить уборку дома роботу и правда ли инфракрасный обогреватель лучше греет? Скоро ли нам будут доступны безболезненные уколы? Ответы на эти и многие другие вопросы – в каждом выпуске проекта «Чудо техники».


- Один за всех: тестируем универсальные пульты управления.
- Дефицитные микроэлементы: как узнать, чего не хватает вашему организму?
- Без шума и пыли: какой пылесос убирает чище – обычный или безмешковый?
* Все самое интересное — в программе «Чудо техники».


Продолжительность: ~ 00:25:49
Выпущено:
Язык: Русский
Автор рипа: Taz
Файл
Формат: AVI
Качество: SATRip
Видео: XviD, ~1500 kb/s, 720 x 448
Аудио: MP3, 2ch., 128 kb/s

Формат : AVI
Формат/Информация : Audio Video Interleave
Размер файла : 302 Мбайт
Продолжительность : 25 м.
Общий поток : 1637 Кбит/сек
Программа кодирования : VirtualDubMod 1.5.10.3 | (build 2550/release)
Библиотека кодирования : VirtualDubMod build 2550/release
Видео
Идентификатор : 0
Формат : MPEG-4 Visual
Профиль формата : Advanced Simple@L5
Параметр BVOP формата : 2
Параметр QPel формата : Нет
Параметр GMC формата : Без точки перехода
Параметр матрицы формата : Default (H.263)
Идентификатор кодека : XVID
Идентификатор кодека/Подсказка : XviD
Продолжительность : 25 м.
Битрейт : 1499 Кбит/сек
Ширина : 720 пикселей
Высота : 448 пикселей
Соотношение сторон : 1,607
Частота кадров : 25,000 кадров/сек
Цветовое пространство : YUV
Субдискретизация насыщенности : 4:2:0
Битовая глубина : 8 бит
Тип развёртки : Прогрессивная
Метод сжатия : С потерями
Бит/(Пиксели*Кадры) : 0.186
Размер потока : 277 Мбайт (92%)
Библиотека кодирования : XviD 1.2.1 (UTC 2008-12-04)
Аудио
Идентификатор : 1
Формат : MPEG Audio
Версия формата : Version 1
Профиль формата : Layer 3
Режим : Joint stereo
Идентификатор кодека : 55
Идентификатор кодека/Подсказка : MP3
Продолжительность : 25 м.
Вид битрейта : Постоянный
Битрейт : 128 Кбит/сек
Каналы : 2 канала
Частота : 48,0 КГц
Метод сжатия : С потерями
Размер потока : 23,6 Мбайт (8%)
Выравнивание : Соединение по промежуткам
Продолжительность промежутка : 40 мс. (1,00 видеокадр)
Время предзагрузки промежутка : 504 мс.
Библиотека кодирования : LAME3.99r
Настройки программы : -m j -V 4 -q 2 -lowpass 17 -b 128






   Похожие торренты   Торрент   Размер 
В этой теме нет новых непрочитанных сообщений. Чудо техники с Сергеем Малоземовым [23.03] (2014) SATRip

88 | 12

305.49 МБ

В этой теме нет новых непрочитанных сообщений. Чудо техники с Сергеем Малоземовым [30.03] (2014) SATRip

148 | 17

304.62 МБ

В этой теме нет новых непрочитанных сообщений. Чудо техники с Сергеем Малоземовым [13.09] (2015) SATRip

115 | 5

489.98 МБ

В этой теме нет новых непрочитанных сообщений. Чудо техники с Сергеем Малоземовым [эфир от 24.03] (2013) SATRip

3 | 3

307.6 МБ

В этой теме нет новых непрочитанных сообщений. Чудо техники с Сергеем Малоземовым [эфир от 10.03] (2013) SATRip

2 | 23

302.86 МБ

В этой теме нет новых непрочитанных сообщений. Чудо техники с Сергеем Малоземовым [эфир от 14.04] (2013) SATRip

5 | 16

304.06 МБ

В этой теме нет новых непрочитанных сообщений. Чудо техники с Сергеем Малоземовым [эфир от 02.06] (2013) SATRip

6 | 16

303 МБ




Вы не можете начинать темы
Вы не можете отвечать на сообщения
Вы не можете редактировать свои сообщения
Вы не можете удалять свои сообщения
Вы не можете добавлять вложения

Перейти:  
Для Мосгорсуда, Роскомнадзора и рекламодателей: mosgorsud-torrent[собачка]yandex.ru
 Вход
ppkBB3cker v.2 © 2008-2014 @ PPK
[ Time : 0.084s | 14 Queries | GZIP : Off ]

Торрент трекер RUTOR.IN, Не можете зайти на rutor.org? Какой новый адрес рутор? Какое зеркало рутор? Не работает rutor.org и зеркала? Тогда наш торрент специально для вас. Rutor.in неофициальное зеркало rutor. В случае если у Вас заблокирован rutor или вдруг Вы не можете на него зайти, то Вы без труда сможете скачать бесплатно и без рекламы последние новинки кино, игр, сериалов и прочего у нас, на Rutor.in. Не нужно использовать прокси, чтобы зайти на рутор, достаточно воспользоваться нашим ресурсом. Все новые фильмы, игры, сериалы, книги и музыка за 2013 и 2014 годы через торрент бесплатно. Скачивайте фильмы в хорошем качестве, игры для пк, xbox, playstation без регистрации. У нас вы найдете новые Зарубежные сериалы и Русские сериалы 2013, 2014, 2015 годов. Оставайтесь с нами, качайте любимые фильмы, игры, сериалы, книги и музыку.