img image001 image001 image001 image001 image001 image001 image001 image001 image001 image001 image001 image001 image001 image001 image001

Planets Sun Sun Sun
Статистика раздачи
Автор: Nickolas3434 | Размер: 458.86 МБ | Добавлен: 07 апр 2014
Раздают: 373    Качают: 46
Скачать торрент
Скачать торрент
Описание торрента

СообщениеДобавлено: 07 апр 2014 


Информация о фильме
Название: Следствие вели... с Леонидом Каневским
Год выпуска: 2014
Жанр: Документальный
Ведущий: Леонид Каневский


Описание:
Он превзошел самого Чикатило. Самый опасный маньяк Советского Союза, которого никто не искал. Как беспомощный с виду инвалид оказался кровожадным палачом?


Продолжительность: 00:39:10
Выпущено:
Перевод: Не требуется
Файл
Формат: AVI
Качество: SATRip
Видео: XviD, ~1500 kb/s, 720x448
Аудио: MP3 1 канал, 128 kb/s

Общее
Полное имя : K:utorrentSledstvie.veli.(2014.04.06).SATRip.avi
Формат : AVI
Формат/Информация : Audio Video Interleave
Размер файла : 459 Мбайт
Продолжительность : 39 м.
Общий поток : 1637 Кбит/сек
Программа кодирования : VirtualDubMod 1.5.10.3 | (build 2550/release)
Библиотека кодирования : VirtualDubMod build 2550/release
Видео
Идентификатор : 0
Формат : MPEG-4 Visual
Профиль формата : Advanced Simple@L5
Параметр BVOP формата : 2
Параметр QPel формата : Нет
Параметр GMC формата : Без точки перехода
Параметр матрицы формата : Default (H.263)
Идентификатор кодека : XVID
Идентификатор кодека/Подсказка : XviD
Продолжительность : 39 м.
Битрейт : 1500 Кбит/сек
Ширина : 720 пикселей
Высота : 448 пикселей
Соотношение сторон : 16:10
Частота кадров : 25,000 кадров/сек
Цветовое пространство : YUV
Субдискретизация насыщенности : 4:2:0
Битовая глубина : 8 бит
Тип развёртки : Прогрессивная
Метод сжатия : С потерями
Бит/(Пиксели*Кадры) : 0.186
Размер потока : 420 Мбайт (92%)
Библиотека кодирования : XviD 1.2.1 (UTC 2008-12-04)
Аудио
Идентификатор : 1
Формат : MPEG Audio
Версия формата : Version 1
Профиль формата : Layer 3
Идентификатор кодека : 55
Идентификатор кодека/Подсказка : MP3
Продолжительность : 39 м.
Вид битрейта : Постоянный
Битрейт : 128 Кбит/сек
Каналы : 1 канал
Частота : 48,0 КГц
Метод сжатия : С потерями
Размер потока : 35,9 Мбайт (8%)
Выравнивание : Соединение по промежуткам
Продолжительность промежутка : 40 мс. (1,00 видеокадр)
Время предзагрузки промежутка : 504 мс.
Библиотека кодирования : LAME3.99r
Настройки программы : -m m -V 4 -q 2 -lowpass 20.5 -b 128






   Похожие торренты   Торрент   Размер 
В этой теме нет новых непрочитанных сообщений. Следствие вели... с Леонидом Каневским [258-290] (2014) SATRip от MediaClub | КПК

591 | 323

5.71 ГБ

В этой теме нет новых непрочитанных сообщений. Следствие вели... с Леонидом Каневским. Барин [22.03] (2014) SATRip

118 | 22

459.98 МБ

В этой теме нет новых непрочитанных сообщений. Следствие вели... с Леонидом Каневским. Последняя любовь [29.03] (2014) SATRip

133 | 20

462.4 МБ

В этой теме нет новых непрочитанных сообщений. Следствие вели... с Леонидом Каневским. - Главный свидетель [21.09] (2014) SATRip

209 | 22

583.69 МБ

В этой теме нет новых непрочитанных сообщений. Следствие вели... с Леонидом Каневским [224-257] (2013) SATRip от MediaClub | КПК

82 | 50

5.96 ГБ

В этой теме нет новых непрочитанных сообщений. Следствие вели... с Леонидом Каневским [01-228] (2006-2012) SATRip

41 | 125

104.51 ГБ

В этой теме нет новых непрочитанных сообщений. Следствие вели... с Леонидом Каневским [101-126] (2009) SATRip от MediaClub | КПК

151 | 32

4.92 ГБ




Вы не можете начинать темы
Вы не можете отвечать на сообщения
Вы не можете редактировать свои сообщения
Вы не можете удалять свои сообщения
Вы не можете добавлять вложения

Перейти:  
Для Мосгорсуда, Роскомнадзора и рекламодателей: mosgorsud-torrent[собачка]yandex.ru
 Вход
ppkBB3cker v.2 © 2008-2014 @ PPK
[ Time : 0.140s | 14 Queries | GZIP : Off ]

Торрент трекер RUTOR.IN, Не можете зайти на rutor.org? Какой новый адрес рутор? Какое зеркало рутор? Не работает rutor.org и зеркала? Тогда наш торрент специально для вас. Rutor.in неофициальное зеркало rutor. В случае если у Вас заблокирован rutor или вдруг Вы не можете на него зайти, то Вы без труда сможете скачать бесплатно и без рекламы последние новинки кино, игр, сериалов и прочего у нас, на Rutor.in. Не нужно использовать прокси, чтобы зайти на рутор, достаточно воспользоваться нашим ресурсом. Все новые фильмы, игры, сериалы, книги и музыка за 2013 и 2014 годы через торрент бесплатно. Скачивайте фильмы в хорошем качестве, игры для пк, xbox, playstation без регистрации. У нас вы найдете новые Зарубежные сериалы и Русские сериалы 2013, 2014, 2015 годов. Оставайтесь с нами, качайте любимые фильмы, игры, сериалы, книги и музыку.