img image001 image001 image001 image001 image001 image001 image001 image001 image001 image001 image001 image001 image001 image001 image001

Planets Sun Sun Sun
Статистика раздачи
Автор: Nickolas3434 | Размер: 652.46 МБ | Добавлен: 08 апр 2014
Раздают: 179    Качают: 34
Скачать торрент
Скачать торрент
Описание торрента

СообщениеДобавлено: 08 апр 2014 

Информация о фильме
Название: Кремлевские похороны. Лаврентий Берия
Год выхода: 2008
Жанр: История, драма
Режиссер: Сергей Краус
В ролях: Свидетели, участники, писатели, публицисты

О фильме:
Лаврентий Берия вошел в историю как один из самых одиозных и кровавых тиранов ХХ века. В памяти народа он навсегда останется зловещим наркомом госбезопасности, идейным вдохновителем массовых репрессий. Последние дни его жизни обросли огромным количеством слухов...
Согласно официальной версии, Лаврентий Берия был арестован по обвинению в заговоре с целью захвата власти. Все обвиняемые по этому делу были приговорены к смертной казни и в тот же день расстреляны. Берию расстреляли даже раньше остальных, а в советской печати промелькнуло лишь краткое сообщение о суде над разоблаченными заговорщиками.
Арест произошел 26 июня 1953 года во время заседания президиума ЦК. До самого конца низложенного Берию содержали в бункере Московского военного округа, где и завершился его жизненный путь. Так случилось, что он разделил участь миллионов, казненных по его распоряжению. Берию расстреляли по надуманному обвинению в шпионаже и подготовке переворота.
Имел ли он отношение к смерти Сталина? Мог ли захватить единоличную власть в стране, контролируя все МВД и будучи первым зампредседателя Совмина СССР? Что привело к такому падению — завышенные амбиции или отсутствие союзников в высшем партийном руководстве? Загадки гибели многоликого наркома, которого боялась вся страна...

Страна: Россия
Студия: РОО Ассоциация "Наше кино"
Продолжительность: 00:43:21
Перевод: Не требуется

Файл
Кодек: Xvid (FourCC заменен на DivX)
Качество: CAMSATRip
Видео: 544х400, 1902 Kbps, 25.000 fps
Звук: AC3 2.0, 192 Kbps
Субтитры: Языки и типы субтитров


General
Complete name : L:Pshichko66Na zapis'Документальный фильмыBeriya.avi
Format : AVI
Format/Info : Audio Video Interleave
File size : 652 MiB
Duration : 43mn 21s
Overall bit rate : 2 104 Kbps
Writing application : VirtualDubMod 1.5.10.2 (build 2540/release)
Writing library : VirtualDubMod build 2540/release

Video
ID : 0
Format : MPEG-4 Visual
Format profile : Advanced Simple@L5
Format settings, BVOP : 1
Format settings, QPel : No
Format settings, GMC : No warppoints
Format settings, Matrix : Default (MPEG)
Codec ID : DIVX
Codec ID/Info : Project Mayo
Codec ID/Hint : DivX 4
Duration : 43mn 21s
Bit rate : 1 902 Kbps
Width : 544 pixels
Height : 400 pixels
Display aspect ratio : 4:3
Frame rate : 25.000 fps
Color space : YUV
Chroma subsampling : 4:2:0
Bit depth : 8 bits
Scan type : Progressive
Compression mode : Lossy
Bits/(Pixel*Frame) : 0.350
Stream size : 590 MiB (90%)
Writing library : XviD 64

Audio
ID : 1
Format : AC-3
Format/Info : Audio Coding 3
Mode extension : CM (complete main)
Format settings, Endianness : Big
Codec ID : 2000
Duration : 43mn 21s
Bit rate mode : Constant
Bit rate : 192 Kbps
Channel count : 2 channels
Channel positions : Front: L R
Sampling rate : 48.0 KHz
Bit depth : 16 bits
Compression mode : Lossy
Stream size : 59.5 MiB (9%)
Alignment : Split accross interleaves
Interleave, duration : 40 ms (1.00 video frame)
Interleave, preload duration : 500 ms

Релиз от: Pshichko66



   Похожие торренты   Торрент   Размер 
В этой теме нет новых непрочитанных сообщений. Кремлевские похороны [07-35 из 35] (2008-2009) SATRip

9 | 23

13.65 ГБ

В этой теме нет новых непрочитанных сообщений. Кремлевские похороны. Сергей Киров [05 из 35] (2008-2009) SATRip

7 | 22

481.1 МБ

В этой теме нет новых непрочитанных сообщений. Кремлевские похороны. Вячеслав Менжинский [01 из 35] (2008-2009) SATRip

9 | 3

483.48 МБ

В этой теме нет новых непрочитанных сообщений. Кремлевские похороны. Владимир Ленин [04 из 35] (2008-2009) SATRip

14 | 6

484.56 МБ

В этой теме нет новых непрочитанных сообщений. Кремлевские похороны. Андрей Жданов [06 из 35] (2008-2009) SATRip

2 | 63

486.61 МБ

В этой теме нет новых непрочитанных сообщений. Кремлевские похороны. Максим Горький [03 из 35] (2008-2009) SATRip

0 | 83

479.37 МБ

В этой теме нет новых непрочитанных сообщений. Кремлевские похороны. Феликс Эдмундович Дзержинский [02 из 35] (2008-2009) SATRip

1 | 73

480.23 МБ




Вы не можете начинать темы
Вы не можете отвечать на сообщения
Вы не можете редактировать свои сообщения
Вы не можете удалять свои сообщения
Вы не можете добавлять вложения

Перейти:  
Для Мосгорсуда, Роскомнадзора и рекламодателей: mosgorsud-torrent[собачка]yandex.ru
 Вход
ppkBB3cker v.2 © 2008-2014 @ PPK
[ Time : 0.038s | 15 Queries | GZIP : Off ]

Торрент трекер RUTOR.IN, Не можете зайти на rutor.org? Какой новый адрес рутор? Какое зеркало рутор? Не работает rutor.org и зеркала? Тогда наш торрент специально для вас. Rutor.in неофициальное зеркало rutor. В случае если у Вас заблокирован rutor или вдруг Вы не можете на него зайти, то Вы без труда сможете скачать бесплатно и без рекламы последние новинки кино, игр, сериалов и прочего у нас, на Rutor.in. Не нужно использовать прокси, чтобы зайти на рутор, достаточно воспользоваться нашим ресурсом. Все новые фильмы, игры, сериалы, книги и музыка за 2013 и 2014 годы через торрент бесплатно. Скачивайте фильмы в хорошем качестве, игры для пк, xbox, playstation без регистрации. У нас вы найдете новые Зарубежные сериалы и Русские сериалы 2013, 2014, 2015 годов. Оставайтесь с нами, качайте любимые фильмы, игры, сериалы, книги и музыку.