img image001 image001 image001 image001 image001 image001 image001 image001 image001 image001 image001 image001 image001 image001 image001

Planets Sun Sun Sun
Статистика раздачи
Автор: Nickolas3434 | Размер: 564.66 МБ | Добавлен: 09 апр 2014
Раздают: 571    Качают: 35
Скачать торрент
Скачать торрент
Описание торрента

СообщениеДобавлено: 09 апр 2014 




Информация
Название: Территория заблуждений с Игорем Прокопенко
Год выпуска: 2014
Жанр: Документальный
Ведущий: Игорь Прокопенко


Описание:
Каждый день приносит научные сенсации, которые противоречат нашим привычным знаниям. Невероятные находки археологов опровергают учебники истории. Новейшие открытия астрономов начисто ломают знания о жизни Вселенной. А последние исследования медиков - рушат, казалось бы, незыблемые истины даже о жизни и смерти. В результате даже ученые все чаще приходят к неутешительному выводу - знания, накопленные человечеством на сегодняшний день - не более, чем территория заблуждений.


Продолжительность: 00:48:20
Выпущено: РЕН-ТВ
Перевод: Не требуется
Автор рипа: Просто_Крол
Файл
Формат: AVI
Качество: SATRip
Видео: XviD, ~1501 kb/s, 720 x 400
Аудио: MP3, 2 ch, 128 Кбит/с


Формат : AVI
Формат/Информация : Audio Video Interleave
Размер файла : 565 Мбайт
Продолжительность : 48 м.
Общий поток : 1633 Кбит/сек
Программа кодирования : VirtualDubMod 1.5.10.2 (build 2540/release)
Библиотека кодирования : VirtualDubMod build 2540/release
Видео
Идентификатор : 0
Формат : MPEG-4 Visual
Профиль формата : Advanced Simple@L5
Параметр BVOP формата : 2
Параметр QPel формата : Нет
Параметр GMC формата : Без точки перехода
Параметр матрицы формата : Default (MPEG)
Режим смешивания : Сжатый битовый поток
Идентификатор кодека : XVID
Идентификатор кодека/Подсказка : XviD
Продолжительность : 48 м.
Битрейт : 1495 Кбит/сек
Ширина : 720 пикселей
Высота : 400 пикселей
Соотношение сторон : 16:9
Частота кадров : 25,000 кадров/сек
Цветовое пространство : YUV
Субдискретизация насыщенности : 4:2:0
Битовая глубина : 8 бит
Тип развёртки : Прогрессивная
Метод сжатия : С потерями
Бит/(Пиксели*Кадры) : 0.208
Размер потока : 517 Мбайт (92%)
Библиотека кодирования : XviD 64
Аудио
Идентификатор : 1
Формат : MPEG Audio
Версия формата : Version 1
Профиль формата : Layer 3
Режим : Joint stereo
Расширение режима : MS Stereo
Идентификатор кодека : 55
Идентификатор кодека/Подсказка : MP3
Продолжительность : 48 м.
Вид битрейта : Постоянный
Битрейт : 128 Кбит/сек
Каналы : 2 канала
Частота : 48,0 КГц
Метод сжатия : С потерями
Размер потока : 44,3 Мбайт (8%)
Выравнивание : Соединение по промежуткам
Продолжительность промежутка : 40 мс. (1,00 видеокадр)
Время предзагрузки промежутка : 504 мс.






   Похожие торренты   Торрент   Размер 
В этой теме нет новых непрочитанных сообщений. Территория заблуждений с Игорем Прокопенко (2014.10.11) SATRip

360 | 66

1.19 ГБ

В этой теме нет новых непрочитанных сообщений. Территория заблуждений с Игорем Прокопенко [25.03] (2014) SATRip

593 | 25

641.34 МБ

В этой теме нет новых непрочитанных сообщений. Территория заблуждений с Игорем Прокопенко [эфир от 28.05] (2013) SATRip

73 | 30

1.04 ГБ

В этой теме нет новых непрочитанных сообщений. Территория заблуждений с Игорем Прокопенко [Эфир от 29.01] (2013) SATRip

6 | 29

1.09 ГБ

В этой теме нет новых непрочитанных сообщений. Территория заблуждений с Игорем Прокопенко [01-27] (2012-2013) SATRip

209 | 93

28.7 ГБ

В этой теме нет новых непрочитанных сообщений. Территория заблуждений с Игорем Прокопенко [эфир от 26.02] (2013) SATRip

141 | 22

1.06 ГБ

В этой теме нет новых непрочитанных сообщений. Территория заблуждений с Игорем Прокопенко [эфир от 19.02] (2013) SATRip

8 | 9

1.05 ГБ




Вы не можете начинать темы
Вы не можете отвечать на сообщения
Вы не можете редактировать свои сообщения
Вы не можете удалять свои сообщения
Вы не можете добавлять вложения

Перейти:  
Для Мосгорсуда, Роскомнадзора и рекламодателей: mosgorsud-torrent[собачка]yandex.ru
 Вход
ppkBB3cker v.2 © 2008-2014 @ PPK
[ Time : 0.034s | 15 Queries | GZIP : Off ]

cron