img image001 image001 image001 image001 image001 image001 image001 image001 image001 image001 image001 image001 image001 image001 image001

Planets Sun Sun Sun
Статистика раздачи
Автор: Nickolas3434 | Размер: 701.55 МБ | Добавлен: 11 апр 2014
Раздают: 94    Качают: 21
Скачать торрент
Скачать торрент
Описание торрента

СообщениеДобавлено: 11 апр 2014 

Информация о фильме
Название: Гибель Гайдара. Легенда о Красном Всаднике

Год выхода: 2008
Жанр: Военный, драма, биография
Режиссер: Галина Огурная
В ролях: Свидетели, участники, публицисты, историки

О фильме:
Попытка восстановить последние месяцы, дни жизни писателя Аркадия Гайдара, человека большой и сложной судьбы.
Страна: Россия
Студия: "Останкино" по заказу ОАО Первый канал
Продолжительность: 00:51:57
Перевод: НЕ требуется

Файл
Кодек: Xvid (FourCC заменен на DivX)
Качество: SATRip
Видео: 640х480, 1686 Kbps, 25.000 fps
Звук: AC3 2.0, 192 Kbps
Семпл








General
Complete name : L:Pshichko66Na zapis'Документальный фильмыGibel' Gaidara. Legenda o Krasnom Vsadnike..avi
Format : AVI
Format/Info : Audio Video Interleave
File size : 702 MiB
Duration : 51mn 57s
Overall bit rate : 1 888 Kbps
Writing application : VirtualDubMod 1.5.10.2 (build 2540/release)
Writing library : VirtualDubMod build 2540/release

Video
ID : 0
Format : MPEG-4 Visual
Format profile : Advanced Simple@L5
Format settings, BVOP : 1
Format settings, QPel : No
Format settings, GMC : No warppoints
Format settings, Matrix : Default (MPEG)
Codec ID : DIVX
Codec ID/Info : Project Mayo
Codec ID/Hint : DivX 4
Duration : 51mn 57s
Bit rate : 1 686 Kbps
Width : 640 pixels
Height : 480 pixels
Display aspect ratio : 4:3
Frame rate : 25.000 fps
Color space : YUV
Chroma subsampling : 4:2:0
Bit depth : 8 bits
Scan type : Progressive
Compression mode : Lossy
Bits/(Pixel*Frame) : 0.220
Stream size : 627 MiB (89%)
Writing library : XviD 64

Audio
ID : 1
Format : AC-3
Format/Info : Audio Coding 3
Mode extension : CM (complete main)
Format settings, Endianness : Big
Codec ID : 2000
Duration : 51mn 56s
Bit rate mode : Constant
Bit rate : 192 Kbps
Channel count : 2 channels
Channel positions : Front: L R
Sampling rate : 48.0 KHz
Bit depth : 16 bits
Compression mode : Lossy
Stream size : 71.3 MiB (10%)
Alignment : Split accross interleaves
Interleave, duration : 40 ms (1.00 video frame)
Interleave, preload duration : 500 ms


Релиз от: название или логотип релиз-группы/ресурса/рипера



   Похожие торренты   Торрент   Размер 
В этой теме нет новых непрочитанных сообщений. Легенда о красном драконе / Rencontre avec le dragon (2003) DVDRip от MediaClub | P

343 | 61

1.46 ГБ

В этой теме нет новых непрочитанных сообщений. Легенда о Красном Орле / Aguila Roja, la pelicula (2011) HDRip | Лицензия

40 | 3

1.46 ГБ

В этой теме нет новых непрочитанных сообщений. Легенда о Красном драконе / Hung Hei Kwun: Siu Lam ng zou (1994) DVDRip-AVC от Freak Chaos

31 | 7

2.1 ГБ

В этой теме нет новых непрочитанных сообщений. Легенда о Красном Орле / Aguila Roja, la pelicula (2011) HDRip-AVC | P | Лицензия

9 | 5

2.32 ГБ

В этой теме нет новых непрочитанных сообщений. Легенда о Красном Орле / Aguila Roja, la pelicula (2011) HDRip | Лицензия

21 | 4

2.05 ГБ

В этой теме нет новых непрочитанных сообщений. Легенда о Красном Орле / Aguila Roja, la pelicula (2011) HDRip от CinemaClub | Лицензия

8 | 5

745.67 МБ

В этой теме нет новых непрочитанных сообщений. Герои Меча и Магии 3 - Легенда о Красном Драконе / Heroes of Might and Magic 3 - Legend of the Red Dragon (2013) PC | Мод

1882 | 63

561.48 МБ




Вы не можете начинать темы
Вы не можете отвечать на сообщения
Вы не можете редактировать свои сообщения
Вы не можете удалять свои сообщения
Вы не можете добавлять вложения

Перейти:  
Для Мосгорсуда, Роскомнадзора и рекламодателей: mosgorsud-torrent[собачка]yandex.ru
 Вход
ppkBB3cker v.2 © 2008-2014 @ PPK
[ Time : 1.635s | 15 Queries | GZIP : Off ]

Торрент трекер RUTOR.IN, Не можете зайти на rutor.org? Какой новый адрес рутор? Какое зеркало рутор? Не работает rutor.org и зеркала? Тогда наш торрент специально для вас. Rutor.in неофициальное зеркало rutor. В случае если у Вас заблокирован rutor или вдруг Вы не можете на него зайти, то Вы без труда сможете скачать бесплатно и без рекламы последние новинки кино, игр, сериалов и прочего у нас, на Rutor.in. Не нужно использовать прокси, чтобы зайти на рутор, достаточно воспользоваться нашим ресурсом. Все новые фильмы, игры, сериалы, книги и музыка за 2013 и 2014 годы через торрент бесплатно. Скачивайте фильмы в хорошем качестве, игры для пк, xbox, playstation без регистрации. У нас вы найдете новые Зарубежные сериалы и Русские сериалы 2013, 2014, 2015 годов. Оставайтесь с нами, качайте любимые фильмы, игры, сериалы, книги и музыку.