img image001 image001 image001 image001 image001 image001 image001 image001 image001 image001 image001 image001 image001 image001 image001

Planets Sun Sun Sun
Статистика раздачи
Автор: Nickolas3434 | Размер: 631.1 МБ | Добавлен: 16 апр 2014
Раздают: 84    Качают: 10
Скачать торрент
Скачать торрент
Описание торрента

СообщениеДобавлено: 16 апр 2014 

Информация о фильме
Название: Сделка века: Абель vs Пауэрс
Год выхода: 2004
Жанр: Документальный, биография
Режиссер: Александр Пасечный
В ролях: Участники, свидетели, родственники

О фильме:
10 февраля 1962 года на мосту Глинке в Западном Берлине СССР и США совершили «обмен века». В разгар холодной войны два непримиримых врага позволили себе маленькую слабость: вместо того, чтобы казнить шпионов, они позволили им вернуться домой. Предметом сделки были американский летчик-шпион Гарри Пауэрс и легендарный советский разведчик Рудольф Абель. Сын Гарри Пауэрса и дочь Рудольфа Абеля, а также непосредственные участники обмена расскажут об уникальных подробностях этой встречи на мосту.
Страна: Россия
Продолжительность: 00:44:23
Перевод: Не требуется

Файл
Кодек: Xvid (FourCC заменен на DivX)
Качество: SATRip
Видео: 640х480, 1850 Kbps, 25.000 fps
Звук: МП3, 128 Kbps, 2 channels
General
Complete name : L:Pshichko66Na zapis'Документальный фильмыSdelka veka. Abel' vs Pauers.avi
Format : AVI
Format/Info : Audio Video Interleave
File size : 631 MiB
Duration : 44mn 23s
Overall bit rate : 1 988 Kbps
Writing application : VirtualDubMod 1.5.10.2 (build 2540/release)
Writing library : VirtualDubMod build 2540/release

Video
ID : 0
Format : MPEG-4 Visual
Format profile : Advanced Simple@L5
Format settings, BVOP : 1
Format settings, QPel : No
Format settings, GMC : No warppoints
Format settings, Matrix : Default (MPEG)
Codec ID : DX50
Codec ID/Hint : DivX 5
Duration : 44mn 23s
Bit rate : 1 850 Kbps
Width : 640 pixels
Height : 480 pixels
Display aspect ratio : 4:3
Frame rate : 25.000 fps
Color space : YUV
Chroma subsampling : 4:2:0
Bit depth : 8 bits
Scan type : Progressive
Compression mode : Lossy
Bits/(Pixel*Frame) : 0.241
Stream size : 587 MiB (93%)
Writing library : XviD 64

Audio
ID : 1
Format : MPEG Audio
Format version : Version 1
Format profile : Layer 3
Mode : Joint stereo
Mode extension : MS Stereo
Codec ID : 55
Codec ID/Hint : MP3
Duration : 44mn 23s
Bit rate mode : Constant
Bit rate : 128 Kbps
Channel count : 2 channels
Sampling rate : 44.1 KHz
Compression mode : Lossy
Stream size : 40.6 MiB (6%)
Alignment : Split accross interleaves
Interleave, duration : 40 ms (1.00 video frame)
Interleave, preload duration : 500 ms



   Похожие торренты   Торрент   Размер 
В этой теме нет новых непрочитанных сообщений. Тайны века. Коллонтай (2004) SATRip от Pshichko66

95 | 9

519.68 МБ

В этой теме нет новых непрочитанных сообщений. Тайны века: Кто платил Ленину (2004) SATRip от Pshichko66

101 | 6

651.43 МБ

В этой теме нет новых непрочитанных сообщений. Тайны века. Убить Версаче (2004) SATRip от Pshichko66

41 | 2

651.23 МБ

В этой теме нет новых непрочитанных сообщений. Тайны века. Мерилин Монро. Голливудская трагедия (2004) SATRip от Pshichko66

91 | 7

651.32 МБ

В этой теме нет новых непрочитанных сообщений. Тайны века. Обреченные на подвиг (2004) DVDRip от Pshichko66

55 | 5

501.09 МБ

В этой теме нет новых непрочитанных сообщений. Тайны века. Взрыв на линкоре (2004) DVDRip от Pshichko66

113 | 6

651.25 МБ

В этой теме нет новых непрочитанных сообщений. Тайны века. Царь Петр и сын его Алексей (2004) DVDRip от Pshichko66

85 | 11

651.19 МБ




Вы не можете начинать темы
Вы не можете отвечать на сообщения
Вы не можете редактировать свои сообщения
Вы не можете удалять свои сообщения
Вы не можете добавлять вложения

Перейти:  
Для Мосгорсуда, Роскомнадзора и рекламодателей: mosgorsud-torrent[собачка]yandex.ru
 Вход
ppkBB3cker v.2 © 2008-2014 @ PPK
[ Time : 0.052s | 15 Queries | GZIP : Off ]

Торрент трекер RUTOR.IN, Не можете зайти на rutor.org? Какой новый адрес рутор? Какое зеркало рутор? Не работает rutor.org и зеркала? Тогда наш торрент специально для вас. Rutor.in неофициальное зеркало rutor. В случае если у Вас заблокирован rutor или вдруг Вы не можете на него зайти, то Вы без труда сможете скачать бесплатно и без рекламы последние новинки кино, игр, сериалов и прочего у нас, на Rutor.in. Не нужно использовать прокси, чтобы зайти на рутор, достаточно воспользоваться нашим ресурсом. Все новые фильмы, игры, сериалы, книги и музыка за 2013 и 2014 годы через торрент бесплатно. Скачивайте фильмы в хорошем качестве, игры для пк, xbox, playstation без регистрации. У нас вы найдете новые Зарубежные сериалы и Русские сериалы 2013, 2014, 2015 годов. Оставайтесь с нами, качайте любимые фильмы, игры, сериалы, книги и музыку.