img image001 image001 image001 image001 image001 image001 image001 image001 image001 image001 image001 image001 image001 image001 image001

Planets Sun Sun Sun
Статистика раздачи
Автор: Nickolas3434 | Размер: 22.62 ГБ | Добавлен: 18 апр 2014
Раздают: 7    Качают: 133
Скачать торрент
Скачать торрент
Описание торрента

СообщениеДобавлено: 18 апр 2014 

Год выпуска: 2013
Страна: Россия
Жанр: Военный репортаж, Документальный
Продолжительность: Первая часть 02:57:13. Вторая часть 00:53:03. Третья часть 00:52:19. Четвертая часть 00:24:36. Часть пятая 01:30:06. Часть шестая 00:22:36. Часть седьмая 00:20:39. Часть восьмая 00:47:26 Часть девятая 01:38:05
Перевод: Не требуется
Русские субтитры: нет
Режиссер: Андрей Филатов, Василий Павлов, Виктор Кузнецов, Игорь Надыршин, Марат Мусин

Описание:Боевые операции Сирийской Арабской Армии, снятые репортерами информационного агентства ANNA-NEWS.

ЦитатаКто-то писал:
Часть первая- Операция Сирийской Арабской Армии в Аль Кабуне
Часть вторая- Дарайя. Удар с юга
Часть третья- Наступление на север
Часть четвертая- Штурм укрепрайона террористов
Часть пятая- Отделение Джобара от Замальки
Часть шестая- Бой за школу в Джобаре. Дуэль танкиста и боевика
Часть седьмая- Танковая атака в Джобаре.
Часть восьмая- Джобар. Тяжелый день для танкистов.
[*] Часть девятая- Операция в Джобаре.
Доп. информация: В дятой части битрейт чуть ниже.

Качество: WEBRip
формат: AVI
Видео: DivX Codec 4.x, 6659 kbps avg, 0.30 bit/pixel, 1280x720 (1.78:1), 24 fps
Аудио: MPEG Layer 3, 256.00 kbps avg, 44.100 kHz, 2 ch,

Бой за школу в Джобаре. Дуэль танкиста и боевика
Общее
Полное имя : ...ТОРРЕНТ АННА НЬЮЗБой за школу в Джобаре. Дуэль танкиста и боевика.avi
Формат : AVI
Формат/Информация : Audio Video Interleave
Размер файла : 1000 Мбайт
Продолжительность : 22 м.
Общий поток : 6187 Кбит/сек
Программа кодирования : Lavf52.93.0

Видео
Идентификатор : 0
Формат : MPEG-4 Visual
Профиль формата : Simple@L1
Параметр BVOP формата : Нет
Параметр QPel формата : Нет
Параметр GMC формата : Без точки перехода
Параметр матрицы формата : Default (H.263)
Идентификатор кодека : DIVX
Идентификатор кодека/Информация : Project Mayo
Идентификатор кодека/Подсказка : DivX 4
Продолжительность : 22 м.
Битрейт : 5919 Кбит/сек
Ширина : 1280 пикселей
Высота : 720 пикселей
Соотношение сторон : 16:9
Частота кадров : 25,000 кадров/сек
Цветовое пространство : YUV
Субдискретизация насыщенности : 4:2:0
Битовая глубина : 8 бит
Тип развёртки : Прогрессивная
Метод сжатия : С потерями
Бит/(Пиксели*Кадры) : 0.257
Размер потока : 957 Мбайт (96%)
Библиотека кодирования : Lavc52.108.0

Аудио
Идентификатор : 1
Формат : MPEG Audio
Версия формата : Version 1
Профиль формата : Layer 3
Режим : Joint stereo
Идентификатор кодека : 55
Идентификатор кодека/Подсказка : MP3
Продолжительность : 22 м.
Вид битрейта : Постоянный
Битрейт : 256 Кбит/сек
Каналы : 2 канала
Частота : 44,1 КГц
Метод сжатия : С потерями
Размер потока : 41,4 Мбайт (4%)
Выравнивание : Соединение по промежуткам
Продолжительность промежутка : 26 мс. (0,65 видеокадр)
Библиотека кодирования : LAME3.98.4

Джобар. Тяжелый день для танкистов
Общее
Полное имя : ...ТОРРЕНТ АННА НЬЮЗДжобар. Тяжелый день для танкистов.avi
Формат : AVI
Формат/Информация : Audio Video Interleave
Профиль формата : OpenDML
Размер файла : 2,61 Гбайт
Продолжительность : 47 м.
Общий поток : 7861 Кбит/сек
Программа кодирования : Lavf52.93.0

Видео
Идентификатор : 0
Формат : MPEG-4 Visual
Профиль формата : Simple@L1
Параметр BVOP формата : Нет
Параметр QPel формата : Нет
Параметр GMC формата : Без точки перехода
Параметр матрицы формата : Default (H.263)
Идентификатор кодека : DIVX
Идентификатор кодека/Информация : Project Mayo
Идентификатор кодека/Подсказка : DivX 4
Продолжительность : 47 м.
Битрейт : 7594 Кбит/сек
Ширина : 1280 пикселей
Высота : 720 пикселей
Соотношение сторон : 16:9
Частота кадров : 25,000 кадров/сек
Цветовое пространство : YUV
Субдискретизация насыщенности : 4:2:0
Битовая глубина : 8 бит
Тип развёртки : Прогрессивная
Метод сжатия : С потерями
Бит/(Пиксели*Кадры) : 0.330
Размер потока : 2,52 Гбайт (97%)
Библиотека кодирования : Lavc52.108.0

Аудио
Идентификатор : 1
Формат : MPEG Audio
Версия формата : Version 1
Профиль формата : Layer 3
Режим : Joint stereo
Идентификатор кодека : 55
Идентификатор кодека/Подсказка : MP3
Продолжительность : 47 м.
Вид битрейта : Постоянный
Битрейт : 256 Кбит/сек
Каналы : 2 канала
Частота : 44,1 КГц
Метод сжатия : С потерями
Размер потока : 86,9 Мбайт (3%)
Выравнивание : Соединение по промежуткам
Продолжительность промежутка : 26 мс. (0,65 видеокадр)
Библиотека кодирования : LAME3.98.4

Наступление на север
Общее
Полное имя : ...ТОРРЕНТ АННА НЬЮЗНаступление на север.avi
Формат : AVI
Формат/Информация : Audio Video Interleave
Профиль формата : OpenDML
Размер файла : 2,38 Гбайт
Продолжительность : 52 м.
Общий поток : 6518 Кбит/сек
Программа кодирования : Lavf52.93.0

Видео
Идентификатор : 0
Формат : MPEG-4 Visual
Профиль формата : Simple@L1
Параметр BVOP формата : Нет
Параметр QPel формата : Нет
Параметр GMC формата : Без точки перехода
Параметр матрицы формата : Default (H.263)
Идентификатор кодека : DIVX
Идентификатор кодека/Информация : Project Mayo
Идентификатор кодека/Подсказка : DivX 4
Продолжительность : 52 м.
Битрейт : 6250 Кбит/сек
Ширина : 1280 пикселей
Высота : 720 пикселей
Соотношение сторон : 16:9
Частота кадров : 25,000 кадров/сек
Цветовое пространство : YUV
Субдискретизация насыщенности : 4:2:0
Битовая глубина : 8 бит
Тип развёртки : Прогрессивная
Метод сжатия : С потерями
Бит/(Пиксели*Кадры) : 0.271
Размер потока : 2,28 Гбайт (96%)
Библиотека кодирования : Lavc52.108.0

Аудио
Идентификатор : 1
Формат : MPEG Audio
Версия формата : Version 1
Профиль формата : Layer 3
Режим : Joint stereo
Идентификатор кодека : 55
Идентификатор кодека/Подсказка : MP3
Продолжительность : 52 м.
Вид битрейта : Постоянный
Битрейт : 256 Кбит/сек
Каналы : 2 канала
Частота : 44,1 КГц
Метод сжатия : С потерями
Размер потока : 95,8 Мбайт (4%)
Выравнивание : Соединение по промежуткам
Продолжительность промежутка : 26 мс. (0,65 видеокадр)
Библиотека кодирования : LAME3.98.4

Операция в Аль Кабуне.
Бой за школу в Джобаре. Дуэль танкиста и боевика

[spoiler="Скриншоты"]


Джобар. Тяжелый день для танкистов

[spoiler="Скриншоты"]


Наступление на север

[spoiler="Скриншоты"]


Операция в Аль Кабуне.

[spoiler="Скриншоты"]


Операция в Джобаре.

[spoiler="Скриншоты"]


Отделение Джобара от Замальки

[spoiler="Скриншоты"]


Сирия. Дарайя. Удар с юга. (ч.1 Сахнайя)

[spoiler="Скриншоты"]


Танковая атака в Джобаре.

[spoiler="Скриншоты"]


Штурм укрепрайона террористов

[spoiler="Скриншоты"]

[/spoiler][/spoiler][/spoiler][/spoiler][/spoiler][/spoiler][/spoiler][/spoiler][/spoiler][/spoiler][/spoiler][/spoiler][/spoiler][/spoiler][/spoiler]



   Похожие торренты   Торрент   Размер 
В этой теме нет новых непрочитанных сообщений. Михаил Задорнов. Неформат 75. ИГИЛ, Сирия, Путин в ООН [03.10] (2015) WEBRip

1369 | 107

1.37 ГБ

В этой теме нет новых непрочитанных сообщений. Репортажи из будущего [01-04 из 04] (2016) SATRip от Files-x

35 | 12

1.95 ГБ

В этой теме нет новых непрочитанных сообщений. Черный рынок. Репортажи / Black Market. Dispatches [01x01-02 из 06] (2016) WEB-DLRip | JimmyJ

78 | 16

532.02 МБ

В этой теме нет новых непрочитанных сообщений. Черный рынок. Репортажи / Black Market. Dispatches [01x01-02 из 06] (2016) WEB-DLRip 1080p | JimmyJ

80 | 1

1.98 ГБ

В этой теме нет новых непрочитанных сообщений. Вторая колыбель (Сирия, Ливан, Грузия) (2008) DVDRip

0 | 3

398.86 МБ

В этой теме нет новых непрочитанных сообщений. Военная приемка. Сирия: Высоковосточный удар (2015) SATRip

314 | 47

590.93 МБ

В этой теме нет новых непрочитанных сообщений. Дыхание планеты. Сирия: горькая дорога к правде (2011) SATRip от AND01AND

0 | 2

320.45 МБ




Вы не можете начинать темы
Вы не можете отвечать на сообщения
Вы не можете редактировать свои сообщения
Вы не можете удалять свои сообщения
Вы не можете добавлять вложения

Перейти:  
Для Мосгорсуда, Роскомнадзора и рекламодателей: mosgorsud-torrent[собачка]yandex.ru
 Вход
ppkBB3cker v.2 © 2008-2014 @ PPK
[ Time : 0.068s | 15 Queries | GZIP : Off ]

Торрент трекер RUTOR.IN, Не можете зайти на rutor.org? Какой новый адрес рутор? Какое зеркало рутор? Не работает rutor.org и зеркала? Тогда наш торрент специально для вас. Rutor.in неофициальное зеркало rutor. В случае если у Вас заблокирован rutor или вдруг Вы не можете на него зайти, то Вы без труда сможете скачать бесплатно и без рекламы последние новинки кино, игр, сериалов и прочего у нас, на Rutor.in. Не нужно использовать прокси, чтобы зайти на рутор, достаточно воспользоваться нашим ресурсом. Все новые фильмы, игры, сериалы, книги и музыка за 2013 и 2014 годы через торрент бесплатно. Скачивайте фильмы в хорошем качестве, игры для пк, xbox, playstation без регистрации. У нас вы найдете новые Зарубежные сериалы и Русские сериалы 2013, 2014, 2015 годов. Оставайтесь с нами, качайте любимые фильмы, игры, сериалы, книги и музыку.