img image001 image001 image001 image001 image001 image001 image001 image001 image001 image001 image001 image001 image001 image001 image001

Planets Sun Sun Sun
Статистика раздачи
Автор: Nickolas3434 | Размер: 1.14 ГБ | Добавлен: 28 апр 2014
Раздают: 138    Качают: 27
Скачать торрент
Скачать торрент
Описание торрента

СообщениеДобавлено: 28 апр 2014 

Информация о фильме
Название: Пинк Флойд: История альбома "Wish You Were Here"
Оригинальное название: Pink Floyd: The Story of Wish You Were Here
Год выпуска: 2012
Жанр: Документальный, интервью, концерт, progressive, art rock
Режиссер: Джон Эдгинтон
В ролях: Роджер Уотерс, Ричард Райт, Ник Мейсон, Дэвид Гилмор

О фильме: Фильм, снятый студией Eagle Vision, рассказывает об истории создания девятого студийного альбома группы Pink Floyd, "Wish You Were Here", который был выпущен в сентябре 1975 года. В фильм вошли новые интервью с Роджером Уотерсом, Дэвидом Гилмором и Ником Мэйсоном, а также архивные интервью с Ричардом Райтом. Помимо вышеперечисленных, слово предоставлено графическому дизайнеру Сторму Торгерсону, исполнителю вокальной партии «Have a Cigar» Рою Харперу, «горящему человеку» с обложки Ронни Ронделлу и другим участникам создания альбома.



Страна: Великобритания
Студия: BBC
Продолжительность: 01:00:00
Перевод: Профессиональный многоголосый

Файл
Кодек: x264
Качество: BDRip-AVC
Видео: MPEG-4 AVC, 2082 Кбит/с, 1024x576, 23.976 кадр/с
Аудио #1: Русский (АС3, 2 ch, 192 Кбит/с) / Профессиональный многоголосый (OPT)
Аудио #2: Английский (АС3, 6 ch, 448 Кбит/с)
Субтитры: Русские, английские

Семпл

x264 [info]: frame I:527 Avg QP:14.85 size: 69697
x264 [info]: frame P:17495 Avg QP:18.07 size: 22157
x264 [info]: frame B:68292 Avg QP:18.88 size: 7492

====================================

Уникальный идентификатор : 189693038671233929529969001513886534367 (0x8EB58CE3347C72E095FF8F9B1749CADF)
Полное имя : E:MCPink.Floyd.Istorija.alboma.2012.x264.BDRip(AVC)-MediaClubPink.Floyd.Istorija.alboma.2012.x264.BDRip(AVC)-MediaClub.mkv
Формат : Matroska
Версия формата : Version 4 / Version 2
Размер файла : 1,14 Гбайт
Продолжительность : 1 ч. 0 м.
Общий поток : 2722 Кбит/сек
Название фильма : -= Release MediaClub =-
Дата кодирования : UTC 2014-04-07 19:25:42
Программа кодирования : mkvmerge v6.4.1 ('Omega Point') built on Sep 16 2013 22:05:10
Библиотека кодирования : libebml v1.3.0 + libmatroska v1.4.1

Видео
Идентификатор : 1
Формат : AVC
Формат/Информация : Advanced Video Codec
Профиль формата : High@L4.1
Параметр CABAC формата : Да
Параметр ReFrames формата : 12 кадров
Идентификатор кодека : V_MPEG4/ISO/AVC
Продолжительность : 1 ч. 0 м.
Битрейт : 2082 Кбит/сек
Ширина : 1024 пикселя
Высота : 576 пикселей
Соотношение сторон : 16:9
Режим частоты кадров : Постоянный
Частота кадров : 23,976 кадра/сек
Цветовое пространство : YUV
Субдискретизация насыщенности : 4:2:0
Битовая глубина : 8 бит
Тип развёртки : Прогрессивная
Бит/(Пиксели*Кадры) : 0.147
Размер потока : 870 Мбайт (74%)
Заголовок : Pink.Floyd.Istorija.alboma.2012.x264.BDRip(AVC)-neni
Библиотека кодирования : x264 core 142 r2409+42 04be48a tMod [8-bit@4:2:0 X86_64]
Настройки программы : cabac=1 / ref=12 / deblock=1:-3:-3 / analyse=0x3:0x113 / me=umh / subme=11 / psy=1 / fade_compensate=0.00 / psy_rd=1.00:0.15 / mixed_ref=1 / me_range=48 / chroma_me=1 / trellis=2 / 8x8dct=1 / cqm=0 / deadzone=21,11 / fast_pskip=0 / chroma_qp_offset=-3 / threads=9 / lookahead_threads=2 / sliced_threads=0 / nr=0 / decimate=0 / interlaced=0 / bluray_compat=0 / constrained_intra=0 / fgo=0 / bframes=10 / b_pyramid=2 / b_adapt=2 / b_bias=0 / direct=3 / weightb=1 / open_gop=0 / weightp=2 / keyint=240 / keyint_min=23 / scenecut=40 / intra_refresh=0 / rc=2pass / mbtree=0 / bitrate=2082 / ratetol=1.0 / qcomp=0.60 / qpmin=0:0:0 / qpmax=69:69:69 / qpstep=4 / cplxblur=20.0 / qblur=0.5 / ip_ratio=1.40 / pb_ratio=1.30 / aq=2:1.20 / aq-sensitivity=10.00 / aq-factor=1.00:1.00:1.00 / aq2=0 / aq3=0
Язык : English
Default : Да
Forced : Да

Аудио #1
Идентификатор : 2
Формат : AC-3
Формат/Информация : Audio Coding 3
Расширение режима : CM (complete main)
Параметр Endianness формата : Big
Идентификатор кодека : A_AC3
Продолжительность : 1 ч. 0 м.
Вид битрейта : Постоянный
Битрейт : 192 Кбит/сек
Каналы : 2 канала
Расположение каналов : Front: L R
Частота : 48,0 КГц
Битовая глубина : 16 бит
Метод сжатия : С потерями
Размер потока : 82,4 Мбайт (7%)
Заголовок : MVO (Первый канал) AC3 2.0 16-bit 192 Kbps 48 kHz
Язык : Russian
Default : Да
Forced : Да

Аудио #2
Идентификатор : 3
Формат : AC-3
Формат/Информация : Audio Coding 3
Расширение режима : CM (complete main)
Параметр Endianness формата : Big
Идентификатор кодека : A_AC3
Продолжительность : 1 ч. 0 м.
Вид битрейта : Постоянный
Битрейт : 448 Кбит/сек
Каналы : 6 каналов
Расположение каналов : Front: L C R, Side: L R, LFE
Частота : 48,0 КГц
Битовая глубина : 16 бит
Метод сжатия : С потерями
Размер потока : 192 Мбайт (16%)
Заголовок : Original
Язык : English
Default : Нет
Forced : Нет

Текст #1
Идентификатор : 4
Формат : UTF-8
Идентификатор кодека : S_TEXT/UTF8
Идентификатор кодека/Информация : UTF-8 Plain Text
Заголовок : Russian
Язык : Russian
Default : Нет
Forced : Нет

Текст #2
Идентификатор : 5
Формат : UTF-8
Идентификатор кодека : S_TEXT/UTF8
Идентификатор кодека/Информация : UTF-8 Plain Text
Заголовок : English
Язык : English
Default : Нет
Forced : Нет

Меню
00:00:00.000 : en:Prologue
00:10:37.001 : en:Into the studio
00:14:55.100 : en:"Have A Cigar"
00:23:40.624 : en:The album cover
00:28:37.000 : en:"Shine On You Crazy Diamond"
00:40:05.008 : en:"Welcome To The Machine"
00:44:42.020 : en:The burning man
00:48:31.015 : en:"Wish You Were Here"
00:56:32.102 : en:Epilogue
За постер, огромное спасибо команде Media-Art-Club!!!




Релиз от: Rip by



   Похожие торренты   Торрент   Размер 
В этой теме нет новых непрочитанных сообщений. Пинк Флойд: История альбома.Wish You Were Here / Pink Floyd: The Story of Wish You Were Here ( 2012) BDRip от -=HD-NET=-

10 | 3

644.85 МБ

В этой теме нет новых непрочитанных сообщений. Пинк Флойд: История альбома "Wish You Were Here" / Pink Floyd: The Story of Wish You Were Here (2012) BDRip 720p | P

104 | 5

2.78 ГБ

В этой теме нет новых непрочитанных сообщений. Пинк Флойд: История альбома "Wish You Were Here" / Pink Floyd: The Story of Wish You Were Here ( 2012) HDTVRip-AVC

9 | 3

882.37 МБ

В этой теме нет новых непрочитанных сообщений. История Пинк Флойд и Сида Барретта / The Pink Floyd and Syd Barrett Story (2001) DVDRip

12 | 4

510.58 МБ

В этой теме нет новых непрочитанных сообщений. Классические Альбомы. Пинк Флойд: История создания альбома Тёмная Сторона Луны / Classic Albums. Pink Floyd: The Making Of The Dark Side Of The Moon (2003) HDTVRip 720p от Generalfilm

190 | 31

802.5 МБ

В этой теме нет новых непрочитанных сообщений. Пинк Флойд - Стена / Pink Floyd - The Wall (1982) DVDRip от MediaClub | КПК

154 | 9

431.1 МБ

В этой теме нет новых непрочитанных сообщений. Pink Floyd - История создания альбома "Wish You Were Here" / Pink Floyd - The Story of Wish You Were Here (2012) DVDRip | Sub

5 | 2

694.75 МБ




Вы не можете начинать темы
Вы не можете отвечать на сообщения
Вы не можете редактировать свои сообщения
Вы не можете удалять свои сообщения
Вы не можете добавлять вложения

Перейти:  
Для Мосгорсуда, Роскомнадзора и рекламодателей: mosgorsud-torrent[собачка]yandex.ru
 Вход
ppkBB3cker v.2 © 2008-2014 @ PPK
[ Time : 0.051s | 16 Queries | GZIP : Off ]

cron