img image001 image001 image001 image001 image001 image001 image001 image001 image001 image001 image001 image001 image001 image001 image001

Planets Sun Sun Sun
Статистика раздачи
Автор: Nickolas3434 | Размер: 17.2 ГБ | Добавлен: 25 май 2014
Раздают: 13    Качают: 5
Скачать торрент
Скачать торрент
Описание торрента

СообщениеДобавлено: 25 май 2014 

Название: Дикая Арктика
Оригинальное название: Wildest Arctic
Год выхода: 2012
Жанр: Документальный, флора, фауна, путешествие
Выпущено: США / Off the Fence Production, Oasis HD, Discovery Networks International

О фильме: Четыре поры года, четыре серии, одна удивительнее другой. Сериал «Дикая Арктика» исследует четыре экстремальных района Арктики и даёт возможность ознакомиться с жизнью животных, которые пытаются выжить в этих невероятных местах обитания. Камеры снимают жизнь животных на протяжении 12 месяцев в занесённых снегом лесах тайги, где произрастает треть всех деревьев на планете. Они также исследуют арктическую тундру, одно из самых холодных и сухих мест на планете, которое стало домом для сотен тысяч оленей. В последующих эпизодах Вы увидите, что собой представляет жизнь за полярным кругом для белых медведей и китов. Вы также побываете в Исландии, стране с удивительным ландшафтом и выносливой дикой природой.

Качество: BDRip 1080p
Видео: MPEG-4 AVC, ~13,2 Мбит/с, 1920x1080, 25.000 кадр/с
Аудио #1: Русский (AC3, 6 ch, 384 Кбит/с) / Дублированный
Аудио #2: Английский (AC3, 6 ch, 448 Кбит/с)
Продолжительность: 4 х ~ 00:44:00

1. Северный Ледовитый океан. Замерзшее царство / Arctic Ocean. The Frozen Sea
Полярный круг - одно из последних мест на Земле, где природа сохранилась в первозданном виде. Программа рассказывает, насколько жизнь этого региона связана со сменой времен года.
2. Тайга / Taiga
Проследите за жизнью ряда животных, в том числе, бурого медведя, в течение года. Все они научились выживать в замерзшей тайге, где произрастает треть всех деревьев на планете.
3. Тундра - ледяная пустыня / Tundra
Арктическая тундра занимает одну пятую всей поверхности суши. Это самое холодное и сухое место на Земле. Посмотрите, как благодаря смене времен года выживают здешние обитатели.
4. Исландия / Iceland.
Откройте для себя красоту Исландии. На этом уникальном острове водятся удивительные животные, например, песцы и самая многочисленная колония атлантических тупиков.




Общее
Уникальный идентификатор: 211405510458509490121335100754812020708 (0x9F0B3865958B60E8AB417720580D27E4)
Полное имя: D: Фильма Wildest_Arctic_Filmrus_1080p 1_Wildest_Arctic._Arctic_Ocean_FilmRus_BD_1080p.mkv
Формат: Matroska
Версия формата: Version 4 / Версия 2
Размер файла: 4,29 Гбайт
Продолжительность: 43 м.
Режим общего битрейта: Переменный
Общий поток: 14,3 Мбит / сек
Название фильма: WILDE_ARKTIS_-_DISC_1.Title1002
Дата кодирования: UTC 2014-05-13 15:47:30
Программа кодирования: MKVMerge v6.9.1 ('Голубой Пантера ") 64bit построен на 18 апреля 2014 18:23:38
Библиотека кодирования: libebml v1.3.0 + libmatroska v1.4.1

Видео
Идентификатор: 2
Формат: AVC
Формат / Информация: Advanced Video Codec
Профиль формата: High@L4.1
Параметр CABAC формата: Да
Параметр меняет взгляды формата: 2 кадра
Идентификатор кодека: V_MPEG4/ISO/AVC
Продолжительность: 43 м.
Вид битрейта: Переменный
Битрейт: 13,2 Мбит / сек
Максимальный битрейт: 75,0 Мбит / сек
Ширина: 1920 пикселей
Высота: 1080 пикселей
Соотношение сторон: 16:9
Режим частоты кадров: Постоянный
Частота кадров: 25,000 кадров / сек
Цветовое пространство: YUV
Субдискретизация насыщенности: 4:02:00
Битовая глубина: 8 бит
Тип развёртки: Прогрессивная
Бит / (Пиксели * Кадры): 0.254
Размер потока: 3,96 Гбайт (92%)
Язык: Русский
По умолчанию: Да
Принудительное: Нет

Аудио # 1
Идентификатор: 1
Формат: AC-3
Формат / Информация: Audio Coding 3
Расширение режима: CM (полный основной)
Параметр Порядок байтов формата: Большой
Идентификатор кодека: A_AC3
Продолжительность: 43 м.
Вид битрейта: Постоянный
Битрейт: 384 Кбит / сек
Каналы: 6 каналов
Расположение каналов: Front: LCR, Side: LR, LFE
Частота: 48,0 КГц
Битовая глубина: 16 бит
Метод сжатия: С потерями
Размер потока: 118 Мбайт (3%)
Язык: Русский
По умолчанию: Нет
Принудительное: Нет

Аудио # 2
Идентификатор: 3
Формат: AC-3
Формат / Информация: Audio Coding 3
Расширение режима: CM (полный основной)
Параметр Порядок байтов формата: Большой
Идентификатор кодека: A_AC3
Продолжительность: 43 м.
Вид битрейта: Постоянный
Битрейт: 448 Кбит / сек
Каналы: 6 каналов
Расположение каналов: Front: LCR, Side: LR, LFE
Частота: 48,0 КГц
Битовая глубина: 16 бит
Метод сжатия: С потерями
Размер потока: 138 Мбайт (3%)
Язык: Английский
По умолчанию: Да
Принудительное: Нет

Меню
00:00:00.000: ан: (01) 00:00:00:000
00:09:04.400: EN: (02) 00:09:04:400
00:21:07.000: EN: (03) 00:21:07:000
00:31:09.000: EN: (04) 00:31:09:000
00:43:00.440: EN: (05) 00:43:00:440

Общее
Уникальный идентификатор: 220715602096299786604672076755455209888 (0xA60C475AA84B939F9D712B8E90E471A0)
Полное имя: D: Фильма Wildest_Arctic_Filmrus_1080p 2_Wildest_Arctic._Taiga_FilmRus_BD_1080p.mkv
Формат: Matroska
Версия формата: Version 4 / Версия 2
Размер файла: 4,32 Гбайт
Продолжительность: 43 м.
Режим общего битрейта: Переменный
Общий поток: 14,3 Мбит / сек
Название фильма: WILDE_ARKTIS_-_DISC_1.Title1003
Дата кодирования: UTC 2014-05-07 18:46:42
Программа кодирования: MKVMerge v6.9.1 ('Голубой Пантера ") 64bit построен на 18 апреля 2014 18:23:38
Библиотека кодирования: libebml v1.3.0 + libmatroska v1.4.1

Видео
Идентификатор: 2
Формат: AVC
Формат / Информация: Advanced Video Codec
Профиль формата: High@L4.1
Параметр CABAC формата: Да
Параметр меняет взгляды формата: 2 кадра
Идентификатор кодека: V_MPEG4/ISO/AVC
Продолжительность: 43 м.
Вид битрейта: Переменный
Битрейт: 13,2 Мбит / сек
Максимальный битрейт: 75,0 Мбит / сек
Ширина: 1920 пикселей
Высота: 1080 пикселей
Соотношение сторон: 16:9
Режим частоты кадров: Постоянный
Частота кадров: 25,000 кадров / сек
Цветовое пространство: YUV
Субдискретизация насыщенности: 4:02:00
Битовая глубина: 8 бит
Тип развёртки: Прогрессивная
Бит / (Пиксели * Кадры): 0.254
Размер потока: 3,98 Гбайт (92%)
По умолчанию: Да
Принудительное: Нет

Аудио # 1
Идентификатор: 1
Формат: AC-3
Формат / Информация: Audio Coding 3
Расширение режима: CM (полный основной)
Параметр Порядок байтов формата: Большой
Идентификатор кодека: A_AC3
Продолжительность: 43 м.
Вид битрейта: Постоянный
Битрейт: 384 Кбит / сек
Каналы: 6 каналов
Расположение каналов: Front: LCR, Side: LR, LFE
Частота: 48,0 КГц
Битовая глубина: 16 бит
Метод сжатия: С потерями
Размер потока: 119 Мбайт (3%)
Заголовок: Русский
Язык: Русский
По умолчанию: Нет
Принудительное: Нет

Аудио # 2
Идентификатор: 3
Формат: AC-3
Формат / Информация: Audio Coding 3
Расширение режима: CM (полный основной)
Параметр Порядок байтов формата: Большой
Идентификатор кодека: A_AC3
Продолжительность: 43 м.
Вид битрейта: Постоянный
Битрейт: 448 Кбит / сек
Каналы: 6 каналов
Расположение каналов: Front: LCR, Side: LR, LFE
Частота: 48,0 КГц
Битовая глубина: 16 бит
Метод сжатия: С потерями
Размер потока: 139 Мбайт (3%)
Заголовок: Английский
Язык: Английский
По умолчанию: Да
Принудительное: Нет

Меню
00:00:00.000: ан: (01) 00:00:00:000
00:10:44.560: EN: (02) 00:10:44:560
00:20:53.360: EN: (03) 00:20:53:360
00:34:29.600: EN: (04) 00:34:29:600
00:43:17.280: EN: (05) 00:43:17:280

Общее
Уникальный идентификатор: 208132172905016707664279988548749222281 (0x9C94CC652CEC63C78B6DB13F3C9FE189)
Полное имя: D: Фильма Wildest_Arctic_Filmrus_1080p 3_Wildest_Arctic._Tundra_FilmRus_BD_1080p.mkv
Формат: Matroska
Версия формата: Version 4 / Версия 2
Размер файла: 4,30 Гбайт
Продолжительность: 43 м.
Режим общего битрейта: Переменный
Общий поток: 14,3 Мбит / сек
Название фильма: WILDE_ARKTIS_-_DISC_1.Title1002
Дата кодирования: UTC 2014-05-13 16:40:02
Программа кодирования: MKVMerge v6.9.1 ('Голубой Пантера ") 64bit построен на 18 апреля 2014 18:23:38
Библиотека кодирования: libebml v1.3.0 + libmatroska v1.4.1

Видео
Идентификатор: 2
Формат: AVC
Формат / Информация: Advanced Video Codec
Профиль формата: High@L4.1
Параметр CABAC формата: Да
Параметр меняет взгляды формата: 2 кадра
Идентификатор кодека: V_MPEG4/ISO/AVC
Продолжительность: 43 м.
Вид битрейта: Переменный
Битрейт: 13,2 Мбит / сек
Максимальный битрейт: 75,0 Мбит / сек
Ширина: 1920 пикселей
Высота: 1080 пикселей
Соотношение сторон: 16:9
Режим частоты кадров: Постоянный
Частота кадров: 25,000 кадров / сек
Цветовое пространство: YUV
Субдискретизация насыщенности: 4:02:00
Битовая глубина: 8 бит
Тип развёртки: Прогрессивная
Бит / (Пиксели * Кадры): 0.254
Размер потока: 3,96 Гбайт (92%)
Язык: Русский
По умолчанию: Да
Принудительное: Нет

Аудио # 1
Идентификатор: 1
Формат: AC-3
Формат / Информация: Audio Coding 3
Расширение режима: CM (полный основной)
Параметр Порядок байтов формата: Большой
Идентификатор кодека: A_AC3
Продолжительность: 43 м.
Вид битрейта: Постоянный
Битрейт: 384 Кбит / сек
Каналы: 6 каналов
Расположение каналов: Front: LCR, Side: LR, LFE
Частота: 48,0 КГц
Битовая глубина: 16 бит
Метод сжатия: С потерями
Размер потока: 118 Мбайт (3%)
Язык: Русский
По умолчанию: Нет
Принудительное: Нет

Аудио # 2
Идентификатор: 3
Формат: AC-3
Формат / Информация: Audio Coding 3
Расширение режима: CM (полный основной)
Параметр Порядок байтов формата: Большой
Идентификатор кодека: A_AC3
Продолжительность: 43 м.
Вид битрейта: Постоянный
Битрейт: 448 Кбит / сек
Каналы: 6 каналов
Расположение каналов: Front: LCR, Side: LR, LFE
Частота: 48,0 КГц
Битовая глубина: 16 бит
Метод сжатия: С потерями
Размер потока: 138 Мбайт (3%)
Язык: Английский
По умолчанию: Да
Принудительное: Нет

Меню
00:00:00.000: ан: (01) 00:00:00:000
00:11:03.240: EN: (02) 00:11:03:240
00:21:07.000: EN: (03) 00:21:07:000
00:31:33.600: EN: (04) 00:31:33:600
00:43:02.520: EN: (05) 00:43:02:520

Общее
Уникальный идентификатор: 204331029331157819915740442375386282703 (0x99B8B98C34E9CA4AA6966F4452D7BACF)
Полное имя: D: Фильма Wildest_Arctic_Filmrus_1080p 4_Wildest_Arctic._Islandia_FilmRus_BD_1080p.mkv
Формат: Matroska
Версия формата: Version 4 / Версия 2
Размер файла: 4,29 Гбайт
Продолжительность: 43 м.
Режим общего битрейта: Переменный
Общий поток: 14,2 Мбит / сек
Название фильма: WILDE_ARKTIS_-_DISC_1.Title1002
Дата кодирования: UTC 2014-05-13 17:55:34
Программа кодирования: MKVMerge v6.9.1 ('Голубой Пантера ") 64bit построен на 18 апреля 2014 18:23:38
Библиотека кодирования: libebml v1.3.0 + libmatroska v1.4.1

Видео
Идентификатор: 2
Формат: AVC
Формат / Информация: Advanced Video Codec
Профиль формата: High@L4.1
Параметр CABAC формата: Да
Параметр меняет взгляды формата: 2 кадра
Идентификатор кодека: V_MPEG4/ISO/AVC
Продолжительность: 43 м.
Вид битрейта: Переменный
Битрейт: 13,1 Мбит / сек
Максимальный битрейт: 75,0 Мбит / сек
Ширина: 1920 пикселей
Высота: 1080 пикселей
Соотношение сторон: 16:9
Режим частоты кадров: Постоянный
Частота кадров: 25,000 кадров / сек
Цветовое пространство: YUV
Субдискретизация насыщенности: 4:02:00
Битовая глубина: 8 бит
Тип развёртки: Прогрессивная
Бит / (Пиксели * Кадры): 0.253
Размер потока: 3,96 Гбайт (92%)
Язык: Русский
По умолчанию: Да
Принудительное: Нет

Аудио # 1
Идентификатор: 1
Формат: AC-3
Формат / Информация: Audio Coding 3
Расширение режима: CM (полный основной)
Параметр Порядок байтов формата: Большой
Идентификатор кодека: A_AC3
Продолжительность: 43 м.
Вид битрейта: Постоянный
Битрейт: 384 Кбит / сек
Каналы: 6 каналов
Расположение каналов: Front: LCR, Side: LR, LFE
Частота: 48,0 КГц
Битовая глубина: 16 бит
Метод сжатия: С потерями
Размер потока: 119 Мбайт (3%)
Язык: Русский
По умолчанию: Нет
Принудительное: Нет

Аудио # 2
Идентификатор: 3
Формат: AC-3
Формат / Информация: Audio Coding 3
Расширение режима: CM (полный основной)
Параметр Порядок байтов формата: Большой
Идентификатор кодека: A_AC3
Продолжительность: 43 м.
Вид битрейта: Постоянный
Битрейт: 448 Кбит / сек
Каналы: 6 каналов
Расположение каналов: Front: LCR, Side: LR, LFE
Частота: 48,0 КГц
Битовая глубина: 16 бит
Метод сжатия: С потерями
Размер потока: 138 Мбайт (3%)
Язык: Английский
По умолчанию: Да
Принудительное: Нет

Меню
00:00:00.000: ан: (01) 00:00:00:000
00:13:11.920: EN: (02) 00:13:11:920
00:21:58.000: EN: (03) 00:21:58:000
00:33:02.760: EN: (04) 00:33:02:760
00:43:07.880: EN: (05) 00:43:07:880

Релиз:



   Похожие торренты   Торрент   Размер 
В этой теме нет новых непрочитанных сообщений. Дикая Арктика / Wildest Arctic [01-04 из 4] (2012) BDRip 720p от FilmRus

41 | 16

8.2 ГБ

В этой теме нет новых непрочитанных сообщений. Animal Planet: Дикая Арктика / Wildest Arctic [01-04 из 04] (2012) HDTV

2 | 2

11.6 ГБ

В этой теме нет новых непрочитанных сообщений. Animal Planet: Дикая Арктика / Wildest Arctic [01-04 из 04] (2012) HDTVRip от ExKinoRay

14 | 4

2.74 ГБ

В этой теме нет новых непрочитанных сообщений. IMAX. Арктика 3D / IMAX. To the Arctic 3D (2012) BDRip 1080p | 3D-Video от HDClub

102 | 9

4.86 ГБ

В этой теме нет новых непрочитанных сообщений. IMAX. Арктика 3D / IMAX. To the Arctic 3D (2012) BDRip 1080p от HDClub

12 | 3

5.31 ГБ

В этой теме нет новых непрочитанных сообщений. IMAX. Арктика 3D / IMAX. To the Arctic 3D (2012) Blu-Ray 1080p от HDClub | P2

7 | 4

22.99 ГБ

В этой теме нет новых непрочитанных сообщений. IMAX. Арктика 3D / IMAX. To the Arctic 3D (2012) BDRip 720p от HDClub

21 | 2

2.83 ГБ




Вы не можете начинать темы
Вы не можете отвечать на сообщения
Вы не можете редактировать свои сообщения
Вы не можете удалять свои сообщения
Вы не можете добавлять вложения

Перейти:  
Для Мосгорсуда, Роскомнадзора и рекламодателей: mosgorsud-torrent[собачка]yandex.ru
 Вход
ppkBB3cker v.2 © 2008-2014 @ PPK
[ Time : 0.057s | 16 Queries | GZIP : Off ]

Торрент трекер RUTOR.IN, Не можете зайти на rutor.org? Какой новый адрес рутор? Какое зеркало рутор? Не работает rutor.org и зеркала? Тогда наш торрент специально для вас. Rutor.in неофициальное зеркало rutor. В случае если у Вас заблокирован rutor или вдруг Вы не можете на него зайти, то Вы без труда сможете скачать бесплатно и без рекламы последние новинки кино, игр, сериалов и прочего у нас, на Rutor.in. Не нужно использовать прокси, чтобы зайти на рутор, достаточно воспользоваться нашим ресурсом. Все новые фильмы, игры, сериалы, книги и музыка за 2013 и 2014 годы через торрент бесплатно. Скачивайте фильмы в хорошем качестве, игры для пк, xbox, playstation без регистрации. У нас вы найдете новые Зарубежные сериалы и Русские сериалы 2013, 2014, 2015 годов. Оставайтесь с нами, качайте любимые фильмы, игры, сериалы, книги и музыку.
cron