img image001 image001 image001 image001 image001 image001 image001 image001 image001 image001 image001 image001 image001 image001 image001

Planets Sun Sun Sun
Статистика раздачи
Автор: Nickolas3434 | Размер: 503.66 МБ | Добавлен: 25 май 2014
Раздают: 60    Качают: 7
Скачать торрент
Скачать торрент
Описание торрента

СообщениеДобавлено: 25 май 2014 

Информация о фильме
Название: Дорожные войны
Год выхода: 2011
Жанр: Документальный
Режиссер: Максим Володин, Сергей Трушкин

О фильме:
Документальный сериал «Дорожные войны» рассказывает о работе сотрудников ГИБДД. Программа основана на материале, снятом видеорегистраторами патрульных машин, уличными камерами наблюдения и случайными очевидцами. Также присутствуют и собственные репортажи от съемочной группы ДТВ, выезжающей на дежурство вместе с экипажами ГИБДД.
Страна: Россия
Продолжительность: 00:14:16
Перевод: Не требуется

Файл MPG
Кодек: MPEG2
Качество: DVB
Видео: MPEG 2, 768@720x576 (4:3), 25.000 fps, 4 578 Kbps (0.442 bit/pixel)
Звук: MP2, 48.0 KHz, 1 ch, 128 Kbps, CBR (English)
Релиз от: Deadmauvlad
Общее
Идентификатор : 1 (0x1)
Полное имя : D:Рипы выкладка [Deadmauvlad]Рипы готовыеDoroghnie.Voiny.DVB.Deadmauvlad.Efir.Ot.15.05.2014.mpg
Формат : MPEG-TS
Размер файла : 504 Мбайт
Продолжительность : 14 м.
Режим общего битрейта : Переменный
Общий поток : 4932 Кбит/сек

Видео
Идентификатор : 2304 (0x900)
Идентификатор меню : 1 (0x1)
Формат : MPEG Video
Версия формата : Version 2
Профиль формата : Main@Main
Параметр BVOP формата : Да
Параметр матрицы формата : Выборочная
Параметр GOP формата : Variable
Идентификатор кодека : 2
Продолжительность : 14 м.
Вид битрейта : Переменный
Битрейт : 4578 Кбит/сек
Ширина : 720 пикселей
Высота : 576 пикселей
Соотношение сторон : 4:3
Частота кадров : 25,000 кадров/сек
Стандарт вещания : PAL
Цветовое пространство : YUV
Субдискретизация насыщенности : 4:2:0
Битовая глубина : 8 бит
Тип развёртки : Чересстрочная
Порядок развёртки : Верхнее поле первое
Метод сжатия : С потерями
Бит/(Пиксели*Кадры) : 0.442
Временной код первого кадра : 00:00:00:00
Оригинал временного кода : Group of pictures header
Размер потока : 466 Мбайт (92%)

Аудио
Идентификатор : 2305 (0x901)
Идентификатор меню : 1 (0x1)
Формат : MPEG Audio
Версия формата : Version 1
Профиль формата : Layer 2
Идентификатор кодека : 3
Продолжительность : 14 м.
Вид битрейта : Постоянный
Битрейт : 128 Кбит/сек
Каналы : 1 канал
Частота : 48,0 КГц
Метод сжатия : С потерями
Задержка видео : 17 мс.
Размер потока : 13,1 Мбайт (3%)
Язык : English




   Похожие торренты   Торрент   Размер 
В этой теме нет новых непрочитанных сообщений. Дорожные войны [эфир от 16.05] (2014) DVB от Deadmauvlad

39 | 16

617.01 МБ

В этой теме нет новых непрочитанных сообщений. Дорожные войны [эфир от 22.02] (2014) TVRip от Deadmauvlad

87 | 19

250.54 МБ

В этой теме нет новых непрочитанных сообщений. Дорожные войны [Новый сезон] [эфир от 15.10] (2014) DVB от Deadmauvlad

71 | 44

840.03 МБ

В этой теме нет новых непрочитанных сообщений. Дорожные войны [Новый сезон] [эфир от 17.09] (2014) DVB от Deadmauvlad

138 | 23

789.61 МБ

В этой теме нет новых непрочитанных сообщений. Дорожные войны [Новый сезон] [эфир от 22.08] (2014) DVB от Deadmauvlad

151 | 76

791.8 МБ

В этой теме нет новых непрочитанных сообщений. Дорожные войны [Новый сезон] [эфир от 04.09] (2014) DVB от Deadmauvlad

41 | 13

838.35 МБ

В этой теме нет новых непрочитанных сообщений. Дорожные войны [Новый сезон] [эфир от 09.10] (2014) DVB от Deadmauvlad

37 | 4

734.81 МБ




Вы не можете начинать темы
Вы не можете отвечать на сообщения
Вы не можете редактировать свои сообщения
Вы не можете удалять свои сообщения
Вы не можете добавлять вложения

Перейти:  
Для Мосгорсуда, Роскомнадзора и рекламодателей: mosgorsud-torrent[собачка]yandex.ru
 Вход
ppkBB3cker v.2 © 2008-2014 @ PPK
[ Time : 0.046s | 16 Queries | GZIP : Off ]

Торрент трекер RUTOR.IN, Не можете зайти на rutor.org? Какой новый адрес рутор? Какое зеркало рутор? Не работает rutor.org и зеркала? Тогда наш торрент специально для вас. Rutor.in неофициальное зеркало rutor. В случае если у Вас заблокирован rutor или вдруг Вы не можете на него зайти, то Вы без труда сможете скачать бесплатно и без рекламы последние новинки кино, игр, сериалов и прочего у нас, на Rutor.in. Не нужно использовать прокси, чтобы зайти на рутор, достаточно воспользоваться нашим ресурсом. Все новые фильмы, игры, сериалы, книги и музыка за 2013 и 2014 годы через торрент бесплатно. Скачивайте фильмы в хорошем качестве, игры для пк, xbox, playstation без регистрации. У нас вы найдете новые Зарубежные сериалы и Русские сериалы 2013, 2014, 2015 годов. Оставайтесь с нами, качайте любимые фильмы, игры, сериалы, книги и музыку.
cron