img image001 image001 image001 image001 image001 image001 image001 image001 image001 image001 image001 image001 image001 image001 image001

Planets Sun Sun Sun
Статистика раздачи
Автор: Nickolas3434 | Размер: 1.65 ГБ | Добавлен: 25 май 2014
Раздают: 40    Качают: 8
Скачать торрент
Скачать торрент
Описание торрента

СообщениеДобавлено: 25 май 2014 

Название: Ибица
Оригинальное название: Ibiza
Год выпуска: 2012
Жанр: Документальный, музыкальный, видовой
Выпущено: Германия, Zenith Pictures
Режиссер: Александр Р. Вольф

Перевод: Не требуется

Сюжет фильма

Ибица — остров, расположенный в Средиземном море, в 80 км от побережья Испании. Это третий по величине остров Балеарского архипелага, являющегося автономной областью Испании. Вместе с островом-спутником Форментерой, Ибица представляет собой местность, покрытую восхитительными сосновыми лесами. Самые крупные города острова — это Ибица (на каталонском: Вила де Ивиса или просто Вила), Санта Эулария дес Риу и Сан Антонио де Портмани. Присоединяйтесь и будьте свидетелями нашей экспедиции и полное приключений, потрясающих видов.
Файл
Качество: BDRip 720p (исходник Blu-ray Remux)
Видео: 1280x720, 4 548 Кбит/сек, 23.976 кадр/сек, AVC, x264, High@L4.1, 0.206 Бит/[Пиксели*Кадры]
Аудио 1: AC3 5.1 48 kHz 640 kbps - Инструментальная музыка

Продолжительность: 00:44:34
Автор рипа: Сообщество:


Format : Matroska
Format version : Version 2
File size : 1.65 GiB
Duration : 44mn 34s
Overall bit rate : 5 294 Kbps
Movie name : Ibiza.(2012).BDRip.720p.[denis100]
Encoded date : UTC 2014-05-14 14:07:35
Writing application : mkvmerge v5.8.0 ('No Sleep / Pillow') built on Sep 2 2012 15:37:04
Writing library : libebml v1.2.3 + libmatroska v1.3.0

Video
ID : 1
Format : AVC
Format/Info : Advanced Video Codec
Format profile : High@L4.1
Format settings, CABAC : Yes
Format settings, ReFrames : 9 frames
Codec ID : V_MPEG4/ISO/AVC
Duration : 44mn 34s
Bit rate : 4 548 Kbps
Width : 1 280 pixels
Height : 720 pixels
Display aspect ratio : 16:9
Frame rate mode : Constant
Frame rate : 23.976 fps
Color space : YUV
Chroma subsampling : 4:2:0
Bit depth : 8 bits
Scan type : Progressive
Bits/(Pixel*Frame) : 0.206
Stream size : 1.42 GiB (86%)
Title : Ibiza.(2012).BDRip.720p.[denis100]
Writing library : x264 core 138 r2358 9e941d1
Encoding settings : cabac=1 / ref=9 / deblock=1:-3:-3 / analyse=0x3:0x133 / me=umh / subme=11 / psy=1 / psy_rd=1.00:0.15 / mixed_ref=1 / me_range=32 / chroma_me=1 / trellis=2 / 8x8dct=1 / cqm=0 / deadzone=21,11 / fast_pskip=0 / chroma_qp_offset=-3 / threads=6 / lookahead_threads=1 / sliced_threads=0 / nr=0 / decimate=1 / interlaced=0 / bluray_compat=0 / constrained_intra=0 / bframes=8 / b_pyramid=2 / b_adapt=2 / b_bias=0 / direct=3 / weightb=1 / open_gop=0 / weightp=2 / keyint=240 / keyint_min=23 / scenecut=40 / intra_refresh=0 / rc=crf / mbtree=0 / crf=18.0 / qcomp=0.60 / qpmin=0 / qpmax=69 / qpstep=4 / ip_ratio=1.40 / pb_ratio=1.30 / aq=2:0.90
Language : English
Default : Yes
Forced : No

Audio
ID : 2
Format : AC-3
Format/Info : Audio Coding 3
Mode extension : CM (complete main)
Format settings, Endianness : Big
Codec ID : A_AC3
Duration : 44mn 34s
Bit rate mode : Constant
Bit rate : 640 Kbps
Channel(s) : 6 channels
Channel positions : Front: L C R, Side: L R, LFE
Sampling rate : 48.0 KHz
Bit depth : 16 bits
Compression mode : Lossy
Stream size : 204 MiB (12%)
Title : Инструментальная музыка
Language : German
Default : Yes
Forced : No

x264 [info]: frame I:269 Avg QP:16.75 size:229657
x264 [info]: frame P:16103 Avg QP:18.36 size: 56115
x264 [info]: frame B:47758 Avg QP:20.29 size: 12352



   Похожие торренты   Торрент   Размер 
В этой теме нет новых непрочитанных сообщений. Мад / Mud (2012) BDRip 720p от denis 100 | A

289 | 48

4.37 ГБ

В этой теме нет новых непрочитанных сообщений. Майорка / Mallorca (2012) BDRip 720p от denis 100

18 | 2

2.94 ГБ

В этой теме нет новых непрочитанных сообщений. Бавария - Путешествие мечты / Bavaria - Traumreise durch Bayern (2012) BDRip 720p от denis 100 | P1

5 | 2

4.39 ГБ

В этой теме нет новых непрочитанных сообщений. Дикая Южная Африка: Сафари / Wildlife South Africa: Safari (2012) BDRip 720p от denis 100 | P1

19 | 10

2.18 ГБ

В этой теме нет новых непрочитанных сообщений. Дикая Южная Африка: Большая пятерка / Wildlife South Africa: Big Fivec (2012) BDRip 720p от denis 100 | P1

9 | 4

2.18 ГБ

В этой теме нет новых непрочитанных сообщений. Дикая Южная Африка: По Следам Белых Акул / Wildlife South Africa: Westkap (2012) BDRip 720p от denis 100 | P1

54 | 3

2.18 ГБ

В этой теме нет новых непрочитанных сообщений. Клятва / The Vow (2012) BDRip 1080p от denis 100

242 | 87

7.76 ГБ




Вы не можете начинать темы
Вы не можете отвечать на сообщения
Вы не можете редактировать свои сообщения
Вы не можете удалять свои сообщения
Вы не можете добавлять вложения

Перейти:  
Для Мосгорсуда, Роскомнадзора и рекламодателей: mosgorsud-torrent[собачка]yandex.ru
 Вход
ppkBB3cker v.2 © 2008-2014 @ PPK
[ Time : 0.032s | 15 Queries | GZIP : Off ]

Торрент трекер RUTOR.IN, Не можете зайти на rutor.org? Какой новый адрес рутор? Какое зеркало рутор? Не работает rutor.org и зеркала? Тогда наш торрент специально для вас. Rutor.in неофициальное зеркало rutor. В случае если у Вас заблокирован rutor или вдруг Вы не можете на него зайти, то Вы без труда сможете скачать бесплатно и без рекламы последние новинки кино, игр, сериалов и прочего у нас, на Rutor.in. Не нужно использовать прокси, чтобы зайти на рутор, достаточно воспользоваться нашим ресурсом. Все новые фильмы, игры, сериалы, книги и музыка за 2013 и 2014 годы через торрент бесплатно. Скачивайте фильмы в хорошем качестве, игры для пк, xbox, playstation без регистрации. У нас вы найдете новые Зарубежные сериалы и Русские сериалы 2013, 2014, 2015 годов. Оставайтесь с нами, качайте любимые фильмы, игры, сериалы, книги и музыку.