img image001 image001 image001 image001 image001 image001 image001 image001 image001 image001 image001 image001 image001 image001 image001

Planets Sun Sun Sun
Статистика раздачи
Автор: Nickolas3434 | Размер: 2.17 ГБ | Добавлен: 25 июн 2014
Раздают: 271    Качают: 44
Скачать торрент
Скачать торрент
Описание торрента

СообщениеДобавлено: 25 июн 2014 

Информация о фильме
Название: Цой-Кино
Год выхода: 2014
Жанр: Биографический фильм
Режиссер: Евгений Лисовский
В ролях: Наталья Разлогова, Александр Цой, участники группы "Кино"

О фильме:
Подруга Виктора Цоя Наташа в течение двадцати двух лет хранила уникальную запись – песню "Атаман", которую Виктор Цой напел однажды на свой двухкассетный магнитофон.
Эта песня никогда нигде не исполнялась и в самом ее существовании многие сомневались. Понимая, что время пришло, Наташа отправляет кассету Георгию Гурьянову, а сама едет в Питер к сыну Цоя Александру, чтобы рассказать ему, почему и зачем она отправила запись барабанщику группы "Кино", ныне знаменитому в России и Европе художнику.
Александр и Наташа встречаются в клубе, где Наташа рассказывает Саше о группе "Кино", а Саша рассказывает ей о своей жизни, о том, что он тоже музыкант, что у него свой клуб и насыщенная событиями жизнь. Из разговора выясняется, что Саша не общается с музыкантами группы "Кино" – смерть Виктора и лихие 90-ые развели в разные стороны близких некогда людей. Наташа и Саша приходят к выводу, что было бы правильно, если бы музыканты "Кино" собрались вместе и записали песню Виктора "Атаман".
Прежде, чем собрать музыкантов "Кино" Наташа и Саша приходят к Инне Николаевне, маме Марьяны - матери Саши. Марьяна тоже была членом группы "Кино", а ее мать – очень близким Виктору человеком. Инна Николаевна вспоминает о том, как впервые увидела Виктора и какими помнит юных "киношников", которые стали впоследствии его самыми близкими друзьями.
И вот спустя годы Саша приходит к Георгию Гурьянову, к ним присоединяется Юрий Каспарян и Игорь Тихомиров. Неформальное общение "киношников" с сыном их близкого друга приводит к тому, что музыканты арендуют студию и записывают песню "Атаман", которая звучит в финале фильма.
Все действие фильма состоит из лайфов – встреч музыкантов с Сашей, воспоминаний о прошлом, разговоров о музыке. К "киношникам" присоединяется Игорь Вдовин, музыкант и композитор, который помогает "Кино" с записью новой песни.
"Кино" – это уникальная атмосфера, в которой Виктор Цой состоялся как поэт, певец и композитор. По-настоящему близкие Виктору люди никогда не появлялись в СМИ-пространстве – их мир и при жизни Цоя был закрыт для посторонних. Фильм дает возможность взглянуть со стороны на тех, кто были настоящими друзьями Виктора Цоя.

Страна: Россия
Студия: Красный квадрат
Продолжительность: 00:44:03
Перевод: не требуется

Файл
Кодек: AVC/H.264
Качество: HDTV 1080i
Видео: 1920x1080, 16:9, 6508 Kbps, 25 fps
Звук: Mp2, 2 ch, 48,0 КГц, 192 Кбит/сек
Субтитры: нет

Семпл

Видео
Идентификатор : 305 (0x131)
Идентификатор меню : 1 (0x1)
Формат : AVC
Формат/Информация : Advanced Video Codec
Профиль формата : High@L4.0
Параметр CABAC формата : Да
Параметр ReFrames формата : 3 кадра
Параметр GOP формата : M=4, N=28
Идентификатор кодека : 27
Продолжительность : 44 м.
Битрейт : 6508 Кбит/сек
Ширина : 1920 пикселей
Высота : 1080 пикселей
Соотношение сторон : 16:9
Частота кадров : 25,000 кадров/сек
Стандарт вещания : Component
Цветовое пространство : YUV
Субдискретизация насыщенности : 4:2:0
Битовая глубина : 8 бит
Тип развёртки : Чересстрочная
Порядок развёртки : Верхнее поле первое
Бит/(Пиксели*Кадры) : 0.126
Размер потока : 2,00 Гбайт (92%)
Основные цвета : BT.709
Характеристики трансфера : BT.709
Коэффициенты матрицы : BT.709
Аудио
Идентификатор : 405 (0x195)
Идентификатор меню : 1 (0x1)
Формат : MPEG Audio
Версия формата : Version 1
Профиль формата : Layer 2
Идентификатор кодека : 3
Продолжительность : 44 м.
Вид битрейта : Постоянный
Битрейт : 192 Кбит/сек
Каналы : 2 канала
Частота : 48,0 КГц
Метод сжатия : С потерями
Размер потока : 60,5 Мбайт (3%)
Язык : Russian



Релиз от: Rmk80disco



   Похожие торренты   Торрент   Размер 
В этой теме нет новых непрочитанных сообщений. Секс в кино / Sex and the cinema (2009) HDTV 1080i от Generalfilm | P

75 | 3

3.08 ГБ

В этой теме нет новых непрочитанных сообщений. Мода в кино / Fashion in film (2008) HDTV 1080i

0 | 0

3.31 ГБ

В этой теме нет новых непрочитанных сообщений. Спецэффекты в кино. Создавая невозможное / Industrial Light and Magic: Creating the Impossible (2010) HDTV 1080i от Generalfilm

35 | 0

3.5 ГБ

В этой теме нет новых непрочитанных сообщений. Сектор Зеро / Section zéro [01-04 из 8] (2016) HDTV 1080i HDTV 1080i от MediaClub | P

10 | 3

9.5 ГБ

В этой теме нет новых непрочитанных сообщений. Велоспорт. Джиро д'Италия 2014 / Giro d'Italia 2014. 11-й этап [21.05] (2014) HDTV 1080i

1 | 2

3.52 ГБ

В этой теме нет новых непрочитанных сообщений. Велоспорт. Джиро д'Италия 2014 / Giro d'Italia 2014. 8-й этап [17.05] (2014) HDTV 1080i

1 | 4

6.82 ГБ

В этой теме нет новых непрочитанных сообщений. Велоспорт. Джиро д'Италия 2014 / Giro d'Italia 2014. 9-й этап [16.05] (2014) HDTV 1080i

0 | 6

5.86 ГБ




Вы не можете начинать темы
Вы не можете отвечать на сообщения
Вы не можете редактировать свои сообщения
Вы не можете удалять свои сообщения
Вы не можете добавлять вложения

Перейти:  
Для Мосгорсуда, Роскомнадзора и рекламодателей: mosgorsud-torrent[собачка]yandex.ru
 Вход
ppkBB3cker v.2 © 2008-2014 @ PPK
[ Time : 0.593s | 15 Queries | GZIP : Off ]

Торрент трекер RUTOR.IN, Не можете зайти на rutor.org? Какой новый адрес рутор? Какое зеркало рутор? Не работает rutor.org и зеркала? Тогда наш торрент специально для вас. Rutor.in неофициальное зеркало rutor. В случае если у Вас заблокирован rutor или вдруг Вы не можете на него зайти, то Вы без труда сможете скачать бесплатно и без рекламы последние новинки кино, игр, сериалов и прочего у нас, на Rutor.in. Не нужно использовать прокси, чтобы зайти на рутор, достаточно воспользоваться нашим ресурсом. Все новые фильмы, игры, сериалы, книги и музыка за 2013 и 2014 годы через торрент бесплатно. Скачивайте фильмы в хорошем качестве, игры для пк, xbox, playstation без регистрации. У нас вы найдете новые Зарубежные сериалы и Русские сериалы 2013, 2014, 2015 годов. Оставайтесь с нами, качайте любимые фильмы, игры, сериалы, книги и музыку.
cron