img image001 image001 image001 image001 image001 image001 image001 image001 image001 image001 image001 image001 image001 image001 image001

Planets Sun Sun Sun
Статистика раздачи
Автор: Nickolas3434 | Размер: 214.33 МБ | Добавлен: 05 авг 2014
Раздают: 339    Качают: 18
Скачать торрент
Скачать торрент
Описание торрента

СообщениеДобавлено: 05 авг 2014 

Оригинальное название: Специальный репортаж "Рабы оптом и в розницу"
Год выпуска: 2014
Жанр: Документальный, репортаж, хроника
Выпущено: Россия, "Красная линия"
Режиссер: Максим Скороходов

О фильме: В России по сей день существует самая настоящая работорговля. Людей можно купить и продать, есть работорговцы, есть рабовладельцы, есть прейскурант цен. Будущих рабов отлавливают на городских вокзалах, предлагают хорошую зарплату, потом опаивают психотропными средствами и - вперёд, на кирпичные заводы Дагестана или в иные невесёлые места. Почему об этом никто не знает? Почему все попытки привлечь работорговцев к ответственности оканчиваются ничем? Главные герои репортажа «Рабы оптом и в розницу» всю свою жизнь посвятили поиску ответов на эти вопросы.

General
Complete name : C:ФильмыRabi.optom.i.v.roznicu.2014.XviD.IPTVRip.avi
Format : AVI
Format/Info : Audio Video Interleave
File size : 214 MiB
Duration : 19mn 36s
Overall bit rate : 1 528 Kbps
Writing application : MEncoder SVN-r33883(20110719-gcc4.5.2)
Writing library : VirtualDub build 32842/release

Video
ID : 0
Format : MPEG-4 Visual
Format profile : Simple@L5
Format settings, BVOP : No
Format settings, QPel : No
Format settings, GMC : No warppoints
Format settings, Matrix : Default (H.263)
Codec ID : XVID
Codec ID/Hint : XviD
Duration : 19mn 36s
Bit rate : 1 391 Kbps
Width : 704 pixels
Height : 400 pixels
Display aspect ratio : 16:9
Frame rate : 25.000 fps
Color space : YUV
Chroma subsampling : 4:2:0
Bit depth : 8 bits
Scan type : Progressive
Compression mode : Lossy
Bits/(Pixel*Frame) : 0.198
Stream size : 195 MiB (91%)
Writing library : XviD 64

Audio
ID : 1
Format : MPEG Audio
Format version : Version 1
Format profile : Layer 3
Mode : Joint stereo
Mode extension : MS Stereo
Codec ID : 55
Codec ID/Hint : MP3
Duration : 19mn 36s
Bit rate mode : Constant
Bit rate : 128 Kbps
Channel(s) : 2 channels
Sampling rate : 44.1 KHz
Compression mode : Lossy
Stream size : 17.9 MiB (8%)
Alignment : Split accross interleaves
Interleave, duration : 40 ms (1.00 video frame)
Interleave, preload duration : 501 ms



Качество: IPTVRip
Видео: 704x400 (1.76:1), 25 fps, XviD build 64 ~1390 kbps avg, 0.20 bit/pixel
Аудио: 44.100 kHz, MPEG Layer 3, 2 ch, ~127.70 kbps avg
Продолжительность: 00:19:36
Перевод: Не требуется




   Похожие торренты   Торрент   Размер 
В этой теме нет новых непрочитанных сообщений. Лапшин Сергей - Победить смертью храбрых. Мы не рабы! Книга 2 (2014) MP3

8 | 1

960.95 МБ

В этой теме нет новых непрочитанных сообщений. Рабы Лампы - Это Не Больно (MC Rip) (1998) FLAC

22 | 9

870.1 МБ

В этой теме нет новых непрочитанных сообщений. Рабы Лампы - Коллекция (1998-2001) MP3

10 | 4

243 МБ

В этой теме нет новых непрочитанных сообщений. Рабы лампы - Это не больно [Переиздание] (2001) MP3

2 | 1

141.05 МБ

В этой теме нет новых непрочитанных сообщений. Оптом дешевле 2 / Cheaper by the Dozen 2 (2005) BDRip AVC

165 | 10

2 ГБ

В этой теме нет новых непрочитанных сообщений. Оптом дешевле 2 / Cheaper by the Dozen 2 (2005) HDRip от Youtracker | D

19 | 12

744.1 МБ

В этой теме нет новых непрочитанных сообщений. Оптом дешевле 2 / Cheaper by the Dozen 2 (2005) HDRip от Youtracker | D

50 | 9

1.46 ГБ




Вы не можете начинать темы
Вы не можете отвечать на сообщения
Вы не можете редактировать свои сообщения
Вы не можете удалять свои сообщения
Вы не можете добавлять вложения

Перейти:  
Для Мосгорсуда, Роскомнадзора и рекламодателей: mosgorsud-torrent[собачка]yandex.ru
 Вход
ppkBB3cker v.2 © 2008-2014 @ PPK
[ Time : 0.046s | 15 Queries | GZIP : Off ]

Торрент трекер RUTOR.IN, Не можете зайти на rutor.org? Какой новый адрес рутор? Какое зеркало рутор? Не работает rutor.org и зеркала? Тогда наш торрент специально для вас. Rutor.in неофициальное зеркало rutor. В случае если у Вас заблокирован rutor или вдруг Вы не можете на него зайти, то Вы без труда сможете скачать бесплатно и без рекламы последние новинки кино, игр, сериалов и прочего у нас, на Rutor.in. Не нужно использовать прокси, чтобы зайти на рутор, достаточно воспользоваться нашим ресурсом. Все новые фильмы, игры, сериалы, книги и музыка за 2013 и 2014 годы через торрент бесплатно. Скачивайте фильмы в хорошем качестве, игры для пк, xbox, playstation без регистрации. У нас вы найдете новые Зарубежные сериалы и Русские сериалы 2013, 2014, 2015 годов. Оставайтесь с нами, качайте любимые фильмы, игры, сериалы, книги и музыку.