img image001 image001 image001 image001 image001 image001 image001 image001 image001 image001 image001 image001 image001 image001 image001

Planets Sun Sun Sun
Статистика раздачи
Автор: Nickolas3434 | Размер: 1.57 ГБ | Добавлен: 17 сен 2014
Раздают: 47    Качают: 10
Скачать торрент
Скачать торрент
Описание торрента

СообщениеДобавлено: 17 сен 2014 

Страна: Россия
Жанр: Документальный
Продолжительность: ~ 00:23:00 * 2 Выпуска = 45 Мин

Описание: Документальный сериал «Дорожные войны» рассказывает о работе сотрудников ГИБДД. Программа основана на материале, снятом видеорегистраторами патрульных машин, уличными камерами наблюдения и случайными очевидцами. Также присутствуют и собственные репортажи от съемочной группы ДТВ, выезжающей на дежурство вместе с экипажами ГИБДД.

Качество: DVB
Формат файла: MPEG-TS
Видео кодек: MPEG2
Аудио кодек: MP2
Видео: MPEG 2, 720x576 (4:3), 25.000 fps, 4524 Кбит/сек @50.0 Mbps (0.436 bit/pixel)
Аудио: MP2, 48.0 KHz, 2 ch, 192 Kbps, CBR (Russian)
Общее
Идентификатор : 1 (0x1)
d0r0ghnie.voiny.DVB.DeadmauvladTV.12.09.2014.(2 Vipuska).ts
Формат : MPEG-TS
Размер файла : 1,57 Гбайт
Продолжительность : 45 м.
Режим общего битрейта : Переменный
Общий поток : 4963 Кбит/сек
Максимальный общий битрейт : 35,5 Мбит/сек

Видео
Идентификатор : 4113 (0x1011)
Идентификатор меню : 1 (0x1)
Формат : MPEG Video
Версия формата : Version 2
Профиль формата : Main@Main
Параметр BVOP формата : Да
Параметр матрицы формата : Выборочная
Параметр GOP формата : Variable
Format_Settings_PictureStructure : Frame
Идентификатор кодека : 2
Продолжительность : 45 м.
Вид битрейта : Переменный
Битрейт : 4524 Кбит/сек
Максимальный битрейт : 50,0 Мбит/сек
Ширина : 720 пикселей
Высота : 576 пикселей
Соотношение сторон : 4:3
Частота кадров : 25,000 кадров/сек
Стандарт вещания : PAL
Цветовое пространство : YUV
Субдискретизация насыщенности : 4:2:0
Битовая глубина : 8 бит
Тип развёртки : Чересстрочная
Порядок развёртки : Верхнее поле первое
Метод сжатия : С потерями
Бит/(Пиксели*Кадры) : 0.436
Временной код первого кадра : 00:00:00:00
Оригинал временного кода : Group of pictures header
Размер потока : 1,43 Гбайт (91%)

Аудио
Идентификатор : 4352 (0x1100)
Идентификатор меню : 1 (0x1)
Формат : MPEG Audio
Версия формата : Version 1
Профиль формата : Layer 2
Идентификатор кодека : 4
Продолжительность : 45 м.
Вид битрейта : Постоянный
Битрейт : 192 Кбит/сек
Каналы : 2 канала
Частота : 48,0 КГц
Метод сжатия : С потерями
Размер потока : 62,1 Мбайт (4%)
Язык : Russian





   Похожие торренты   Торрент   Размер 
В этой теме нет новых непрочитанных сообщений. Дорожные войны [Новый сезон] [эфир от 26.09] (2 Выпуска) (2014) DVB от Deadmauvlad

76 | 13

1.62 ГБ

В этой теме нет новых непрочитанных сообщений. Дорожные войны [Новый сезон] [эфир от 12.09] (2 Выпуска) (2014) SATRip от Deadmauvlad

112 | 11

550.96 МБ

В этой теме нет новых непрочитанных сообщений. Дорожные войны [Новый сезон] [эфир от 11.09] (2 Выпуска) (2014) SATRip от Deadmauvlad

66 | 4

552.72 МБ

В этой теме нет новых непрочитанных сообщений. Дорожные войны [Новый сезон] [эфир от 26.09] (2 Выпуска) (2014) SATRip от Deadmauvlad

100 | 8

698.68 МБ

В этой теме нет новых непрочитанных сообщений. Дорожные войны [Новый сезон] [эфир от 09.10] (2014) DVB от Deadmauvlad

37 | 4

734.81 МБ

В этой теме нет новых непрочитанных сообщений. Дорожные войны [Новый сезон] [эфир от 20.09] (2014) DVB от Deadmauvlad

42 | 12

720 МБ

В этой теме нет новых непрочитанных сообщений. Дорожные войны [Новый сезон] [эфир от 17.09] (2014) DVB от Deadmauvlad

138 | 23

789.61 МБ




Вы не можете начинать темы
Вы не можете отвечать на сообщения
Вы не можете редактировать свои сообщения
Вы не можете удалять свои сообщения
Вы не можете добавлять вложения

Перейти:  
Для Мосгорсуда, Роскомнадзора и рекламодателей: mosgorsud-torrent[собачка]yandex.ru
 Вход
ppkBB3cker v.2 © 2008-2014 @ PPK
[ Time : 0.105s | 15 Queries | GZIP : Off ]

Торрент трекер RUTOR.IN, Не можете зайти на rutor.org? Какой новый адрес рутор? Какое зеркало рутор? Не работает rutor.org и зеркала? Тогда наш торрент специально для вас. Rutor.in неофициальное зеркало rutor. В случае если у Вас заблокирован rutor или вдруг Вы не можете на него зайти, то Вы без труда сможете скачать бесплатно и без рекламы последние новинки кино, игр, сериалов и прочего у нас, на Rutor.in. Не нужно использовать прокси, чтобы зайти на рутор, достаточно воспользоваться нашим ресурсом. Все новые фильмы, игры, сериалы, книги и музыка за 2013 и 2014 годы через торрент бесплатно. Скачивайте фильмы в хорошем качестве, игры для пк, xbox, playstation без регистрации. У нас вы найдете новые Зарубежные сериалы и Русские сериалы 2013, 2014, 2015 годов. Оставайтесь с нами, качайте любимые фильмы, игры, сериалы, книги и музыку.