img image001 image001 image001 image001 image001 image001 image001 image001 image001 image001 image001 image001 image001 image001 image001

Planets Sun Sun Sun
Статистика раздачи
Автор: Nickolas3434 | Размер: 3.01 ГБ | Добавлен: 21 сен 2014
Раздают: 30    Качают: 7
Скачать торрент
Скачать торрент
Описание торрента

СообщениеДобавлено: 21 сен 2014 

Название: Владимир Меньшов - С ним же по улице нельзя пройти
Дата выхода: 2014
Страна: Россия
Жанр: Документальный
В фильме снимались: Вера Алентова, Юлия Меньшова, Валерий Гаркалин, Карен Шахназаров, Раиса Рязанова, Александр Михайлов, Сергей Никитин, Дмитрий Харатьян.

Описание: Он не должен был стать режиссером или артистом. Владимира Меньшова готовили к военной карьере, а он в юности влюбился в мир кинематографа."Я поменял вектор, который мне был предписан судьбой", - говорит Владимир Меньшов и добавляет: "Я понял, что без кино не выживу".Фильм - об истории фантастического успеха Владимира Меньшова. Владимир Меньшов снял всего пять картин, но зато каких! Знаменитые "Москва слезам не верит" и "Любовь и голуби" остаются одними из самых популярных и любимых зрителями фильмов. Хотя путь к успеху был трудным.Когда в 1979-м в прокат вышел фильм "Москва слезам не верит", только за год его посмотрело почти 90 миллионов зрителей. Создатели картины получали мешки писем от потрясенных людей, а пресса в это же самое время писала о потакании дурным вкусам мещан и о слабой режиссуре. А фильм жил своей жизнью, не сходил с экранов кинотеатров, его купили более ста стран, он завоевал призы на множестве международных кинофестивалей, создатели фильма получили Государственную премию СССР. В довершение всего Американская академия киноискусства в 1981 году назвала фильм "Москва слезам не верит" лучшим иностранным фильмом года и присудила ему "Оскар". Однако самому режиссёру знаменитую статуэтку вручили только спустя несколько лет. В 1984 году Меньшов снял картину "Любовь и голуби" по одноименной пьесе Владимира Гуркина. Прокатная судьба этого фильма была подпорчена тем, что он попал под каток начавшейся тогда кампании борьбы с алкоголизмом. А поскольку один из героев картины, блистательно сыгранный Сергеем Юрским, постоянно находился в состоянии подпития, то Меньшова, не соглашавшегося ни с какими поправками по фильму, сначала отстранили от картины, потом вырезали из нее все подозрительные сцены и положили на полку. И только через полгода фильм восстановили и выпустили на экраны. Следующий фильм Меньшова появился на экранах через 11 лет. История о братьях-близнецах "Ширли-мырли" вышла на экраны в 1995 году. Последняя по времени работа Владимира Меньшова – лирическая трагедия (так он сам определяет жанр фильма) "Зависть богов" закончена в 2000 году. Сейчас он снимается в кино, а кино не снимает. Почему? На этот вопрос режиссер даст ответ в фильме.

Релиз от:

General
ID : 1 (0x1)
Complete name : C:Vladimir.Menshov.HDTV.1080i.ts
Format : MPEG-TS
File size : 3.01 GiB
Duration : 49mn 57s
Overall bit rate : 8 629 Kbps

Video
ID : 3311 (0xCEF)
Menu ID : 1 (0x1)
Format : AVC
Format/Info : Advanced Video Codec
Format profile : Main@L4.0
Format settings, CABAC : Yes
Format settings, ReFrames : 3 frames
Codec ID : 27
Duration : 49mn 57s
Bit rate : 8 009 Kbps
Width : 1 920 pixels
Height : 1 080 pixels
Display aspect ratio : 16:9
Frame rate : 25.000 fps
Standard : Component
Color space : YUV
Chroma subsampling : 4:2:0
Bit depth : 8 bits
Scan type : Interlaced
Scan order : Top Field First
Bits/(Pixel*Frame) : 0.154
Stream size : 2.79 GiB (93%)
Color primaries : BT.709-5, BT.1361, IEC 61966-2-4, SMPTE RP177
Transfer characteristics : BT.709-5, BT.1361
Matrix coefficients : BT.709-5, BT.1361, IEC 61966-2-4 709, SMPTE RP177

Audio
ID : 3312 (0xCF0)
Menu ID : 1 (0x1)
Format : MPEG Audio
Format version : Version 1
Format profile : Layer 2
Codec ID : 3
Duration : 49mn 57s
Bit rate mode : Constant
Bit rate : 192 Kbps
Channel(s) : 2 channels
Sampling rate : 48.0 KHz
Compression mode : Lossy
Stream size : 68.6 MiB (2%)
Language : Russian



Качество: HDTVRip 1080i
Формат файла: MPEG-TS
Видео: 1920x1080 (16:9), 25 fps, AVC MPEG-4, Main@L4.0, 8009 Кбит/с, 0.154 bit/pixel
Аудио: 48 kHz, MPEG Audio 2 ch, 192 Кбит/с
Продолжительность: 00:49:57
Язык: Русский





   Похожие торренты   Торрент   Размер 
В этой теме нет новых непрочитанных сообщений. Владимир Меньшов - С ним же по улице нельзя пройти (2014) SATRip

64 | 7

715.55 МБ

В этой теме нет новых непрочитанных сообщений. Говорите с Юлией Таратутой. Владимир Меньшов [17.04] (2015) TVRip

26 | 3

952.9 МБ

В этой теме нет новых непрочитанных сообщений. Бежать нельзя погибнуть [01-02 из 02] (2015) HDTV 1080i от MediaClub

66 | 11

12.36 ГБ

В этой теме нет новых непрочитанных сообщений. Теория заговора. Съесть нельзя выбросить (Эфир 27.08) (2016) HDTV 1080i от GeneralFilm

26 | 3

2.29 ГБ

В этой теме нет новых непрочитанных сообщений. Бежать нельзя погибнуть [01-02 из 02] (2015) HDTVRip-AVC

269 | 19

2.15 ГБ

В этой теме нет новых непрочитанных сообщений. Любить нельзя ненавидеть [01 из 08] (2013) HDTVRip от Files-x

0 | 0

3.22 ГБ

В этой теме нет новых непрочитанных сообщений. Бежать нельзя погибнуть [01-02 из 02] (2015) HDTVRip от Files-х

1054 | 144

2.73 ГБ




Вы не можете начинать темы
Вы не можете отвечать на сообщения
Вы не можете редактировать свои сообщения
Вы не можете удалять свои сообщения
Вы не можете добавлять вложения

Перейти:  
Для Мосгорсуда, Роскомнадзора и рекламодателей: mosgorsud-torrent[собачка]yandex.ru
 Вход
ppkBB3cker v.2 © 2008-2014 @ PPK
[ Time : 0.075s | 15 Queries | GZIP : Off ]

Торрент трекер RUTOR.IN, Не можете зайти на rutor.org? Какой новый адрес рутор? Какое зеркало рутор? Не работает rutor.org и зеркала? Тогда наш торрент специально для вас. Rutor.in неофициальное зеркало rutor. В случае если у Вас заблокирован rutor или вдруг Вы не можете на него зайти, то Вы без труда сможете скачать бесплатно и без рекламы последние новинки кино, игр, сериалов и прочего у нас, на Rutor.in. Не нужно использовать прокси, чтобы зайти на рутор, достаточно воспользоваться нашим ресурсом. Все новые фильмы, игры, сериалы, книги и музыка за 2013 и 2014 годы через торрент бесплатно. Скачивайте фильмы в хорошем качестве, игры для пк, xbox, playstation без регистрации. У нас вы найдете новые Зарубежные сериалы и Русские сериалы 2013, 2014, 2015 годов. Оставайтесь с нами, качайте любимые фильмы, игры, сериалы, книги и музыку.