img image001 image001 image001 image001 image001 image001 image001 image001 image001 image001 image001 image001 image001 image001 image001

Planets Sun Sun Sun
Статистика раздачи
Автор: Nickolas3434 | Размер: 1.71 ГБ | Добавлен: 30 сен 2014
Раздают: 99    Качают: 15
Скачать торрент
Скачать торрент
Описание торрента

СообщениеДобавлено: 30 сен 2014 



История Китая: Первый император (3-я серия)






Оригинальное название: China's Origins (China The Beginning)
Год Выпуска: 2013
Страна: Франция
Жанр: Документальный сериал
Продолжительность: 00:49:23
Режиссер: Сергэ Тигнерес

Канал: Viasat History HD
Язык комментария: Русский
Текст читает: Виктория Бабанова

Описание:
Разбив всех своих врагов, в 221 году до н. э. Цинь Шихуан-ди устанавливает единоличное господство на всей территории Внутреннего Китая и провозглашает себя первым императором. Зачастую мы забываем, что на рассвете христианской эпохи, китайская цивилизация уже была крайне развитой. Эта увлекательная программа позволит нам попасть в самое сердце одной из самых загадочных стран на планете. Мы станем свидетелями эволюции цивилизации и отправимся на места захоронений высокопоставленных лиц, а также посетим мавзолей первого императора Китая Цинь Шихуана-ди, для сопровождения которого в потустороннем мире было изготовлено бесчисленное терракотовое войско.


Качество: HDTV 720p
Формат: MKV
Видео: AVC, 4747 Кбит/сек, 1280x720, 50.000 кадр/сек
Аудио: AAC LC, 192 Кбит/сек, 2 канала, 48 КГц






Автор записи/рипа: waPBX

Общее
Полное имя : История Китая 3-я серия.mkv
Формат : Matroska
Версия формата : Version 2
Размер файла : 1,71 Гбайт
Продолжительность : 49 м.
Общий поток : 4944 Кбит/сек
Программа кодирования : libmatroska 1.4.0
Библиотека кодирования : SolveigMM Matroska Muxer Version 1.0.1208.20

Видео
Идентификатор : 1
Формат : AVC
Формат/Информация : Advanced Video Codec
Профиль формата : High@L4.0
Параметр CABAC формата : Да
Параметр ReFrames формата : 4 кадра
Параметр GOP формата : M=4, N=64
Идентификатор кодека : V_MPEG4/ISO/AVC
Продолжительность : 49 м.
Битрейт : 4654 Кбит/сек
Ширина : 1280 пикселей
Высота : 720 пикселей
Соотношение сторон : 16:9
Режим частоты кадров : Постоянный
Частота кадров : 50,000 кадров/сек
Стандарт вещания : Component
Цветовое пространство : YUV
Субдискретизация насыщенности : 4:2:0
Битовая глубина : 8 бит
Тип развёртки : Прогрессивная
Бит/(Пиксели*Кадры) : 0.101
Размер потока : 1,61 Гбайт (94%)
Язык : English
Default : Нет
Forced : Нет
Основные цвета : BT.601 PAL
Характеристики трансфера : BT.470 System B, BT.470 System G
Коэффициенты матрицы : BT.601

Аудио
Идентификатор : 2
Формат : MPEG Audio
Версия формата : Version 1
Профиль формата : Layer 2
Идентификатор кодека : A_MPEG/L2
Идентификатор кодека/Подсказка : MP2
Продолжительность : 49 м.
Вид битрейта : Постоянный
Битрейт : 192 Кбит/сек
Каналы : 2 канала
Частота : 48,0 КГц
Метод сжатия : С потерями
Размер потока : 67,8 Мбайт (4%)
Язык : English
Default : Нет
Forced : Нет



   Похожие торренты   Торрент   Размер 
В этой теме нет новых непрочитанных сообщений. История Китая / China's Origins [01-02 из 03] (2013) SATRip

114 | 7

1.42 ГБ

В этой теме нет новых непрочитанных сообщений. National Geographic: Тайны древности: Потерянные пирамиды Китая / Ancient Secrets: China's lost Pyramids (2010) HDTV

2 | 1

1.78 ГБ

В этой теме нет новых непрочитанных сообщений. История футбола / The origins of football (2013) HDTV 1080i от Generalfilm | Лицензия

125 | 24

2.13 ГБ

В этой теме нет новых непрочитанных сообщений. Императрица Китая / Wu Mei Niang Chuan Qi / The Empress of China [01-20 из 96] (2014-2015) WEBRip, HDTVRip 720p, 1080i

39 | 84

28.98 ГБ

В этой теме нет новых непрочитанных сообщений. Вторая мировая: Забытая война Китая / World War II: China's Forgotten War [01-02 из 02] (2016) HDTVRip 720p от Files-x

22 | 4

2.43 ГБ

В этой теме нет новых непрочитанных сообщений. Фигурное катание. Гран-при Китая - 2014 / 2014 Lexus Cup of China (2014) HDTV 1080i

11 | 10

41.29 ГБ

В этой теме нет новых непрочитанных сообщений. Формула 1. Сезон 2013. Этап 03. Гран-при Китая. Полный уик-энд Гран-при Китая [Спорт 1 HD] (2013) HDTV 1080i

1 | 3

44.5 ГБ




Вы не можете начинать темы
Вы не можете отвечать на сообщения
Вы не можете редактировать свои сообщения
Вы не можете удалять свои сообщения
Вы не можете добавлять вложения

Перейти:  
Для Мосгорсуда, Роскомнадзора и рекламодателей: mosgorsud-torrent[собачка]yandex.ru
 Вход
ppkBB3cker v.2 © 2008-2014 @ PPK
[ Time : 0.042s | 15 Queries | GZIP : Off ]

cron