img image001 image001 image001 image001 image001 image001 image001 image001 image001 image001 image001 image001 image001 image001 image001

Planets Sun Sun Sun
Статистика раздачи
Автор: Nickolas3434 | Размер: 231.26 МБ | Добавлен: 01 окт 2014
Раздают: 58    Качают: 6
Скачать торрент
Скачать торрент
Описание торрента

СообщениеДобавлено: 01 окт 2014 



Замок Мон-Сен Мишель






Оригинальное название: Mont Saint Michel
Год Выпуска: 2013
Страна: Франция
Жанр: Документальный сериал
Продолжительность: 00:07:25

Канал: Viasat History HD
Язык комментария: Русский
Текст читает: Роман Антонович

Описание:
Мон-Сен-Мишель (в переводе с французского «гора Святого Михаила») — небольшой скалистый остров-гора, превращенный в остров-крепость, на северо-западном побережье Франции. Он является единственным обитаемым из трех гранитных образований бухты Сен-Мишель (Мон Сен-Мишель, Томблен и Мон Доль). Город на острове существует с 709 года. В настоящее время насчитывает 80 жителей. С 1879 года остров связан дамбой с материком. Остров представляет собой гранитное образование примерно 930 м в диаметре и высотой 92 м над уровнем моря.

Мон-Сен-Мишель известен бенедиктинским аббатством, построенным в XI-XIV веках. Аббатство занимает площадь около 55 000 кв. м и представляет собой отлично сохранившийся образец средневекового французского укрепленного монастыря. Аббатство действует до сих пор, в нем постоянно проживает около 50 монахов-бенедиктинцев. Увенчанный шпилем аббатства остров поражает грандиозностью и величием. Сегодня это место паломничества. Аббатство привлекает туристов всего мира, как живая легенда, ведь библейское сражение Архангела Михаила с Сатаной в образе дракона завершилось, по преданию, именно здесь. Мон-Сен-Мишель также упоминается и в легендах о короле Артуре. В частности, рассказывалось, что Артур сразил жившего здесь великана и что в толстых стенах аббатства замурован Святой Грааль.

В первой половине X в. норманны захватили полуостров Котентен (Cotentin), и остров стал стратегически важным пунктом на границе с Бретанью. В то время на скале была возведена церковь в дороманском стиле. На протяжении многих лет остров, укрепленный самой природой, отражал неоднократные набеги викингов. Закат могущества монастыря начался во время Столетней войны. Англичане осаждали аббатство с 1424 по 1434 г., но так и не смогли захватить остров. Город, однако, был почти полностью разрушен. Тем не менее, уже с середины XV в. аббатство снова начало принимать паломников. Но, несмотря на это, а также на завершение в 1520 г. строительства центрального здания в позднеготическом стиле, Мон-Сен-Мишель постепенно приходил в упадок и ко времени Великой Французской революции стал почти заброшен. Монастырь был закрыт (монахи вернулись на остров только 1966 г.), и до 1863 г. остров использовался как тюрьма.

Мон-Сен-Мишель является самым популярным туристическим местом в Нормандии. Ежегодно остров посещают около 3,5 миллионов человек. Во Франции Мон-Сен-Мишель уступает в популярности только Эйфелевой башне и Версалю. К самой крепости во время приливов (самых высоких на всем европейском побережье — до 9 м.) можно добраться только на лодках. В прилив вода прибывает со скоростью 20 км/ч. В отлив к крепости можно пройти посуху.



Качество: HDTV 720p
Формат: MKV
Видео: AVC, 4153 Кбит/сек, 1280x720, 50.000 кадр/сек
Аудио: AAC LC, 192 Кбит/сек, 2 канала, 48 КГц






Автор записи/рипа: waPBX

Общее
Полное имя : Замок Мон-Сен Мишель.mkv
Формат : Matroska
Версия формата : Version 2
Размер файла : 231 Мбайт
Продолжительность : 7 м. 25 с.
Общий поток : 4350 Кбит/сек
Программа кодирования : libmatroska 1.4.0
Библиотека кодирования : SolveigMM Matroska Muxer Version 1.0.1208.20

Видео
Идентификатор : 1
Формат : AVC
Формат/Информация : Advanced Video Codec
Профиль формата : High@L4.0
Параметр CABAC формата : Да
Параметр ReFrames формата : 4 кадра
Параметр GOP формата : M=4, N=64
Идентификатор кодека : V_MPEG4/ISO/AVC
Продолжительность : 7 м. 25 с.
Битрейт : 4071 Кбит/сек
Ширина : 1280 пикселей
Высота : 720 пикселей
Соотношение сторон : 16:9
Режим частоты кадров : Постоянный
Частота кадров : 50,000 кадров/сек
Стандарт вещания : Component
Цветовое пространство : YUV
Субдискретизация насыщенности : 4:2:0
Битовая глубина : 8 бит
Тип развёртки : Прогрессивная
Бит/(Пиксели*Кадры) : 0.088
Размер потока : 216 Мбайт (94%)
Язык : English
Default : Нет
Forced : Нет
Основные цвета : BT.601 PAL
Характеристики трансфера : BT.470 System B, BT.470 System G
Коэффициенты матрицы : BT.601

Аудио
Идентификатор : 2
Формат : MPEG Audio
Версия формата : Version 1
Профиль формата : Layer 2
Идентификатор кодека : A_MPEG/L2
Идентификатор кодека/Подсказка : MP2
Продолжительность : 7 м. 25 с.
Вид битрейта : Постоянный
Битрейт : 192 Кбит/сек
Каналы : 2 канала
Частота : 48,0 КГц
Метод сжатия : С потерями
Задержка видео : -1 м. 5 с.
Размер потока : 10,2 Мбайт (4%)
Язык : English
Default : Нет
Forced : Нет



   Похожие торренты   Торрент   Размер 
В этой теме нет новых непрочитанных сообщений. Шагающий замок Хаула (Ходячий замок) / Howl's Moving Castle (2004) HDTV 720p

545 | 32

3.24 ГБ

В этой теме нет новых непрочитанных сообщений. Харуки Мураками - Страна Чудес без тормозов и Конец Света (2013) MP3

71 | 2

1.13 ГБ

В этой теме нет новых непрочитанных сообщений. Теннис. Wimbledon 2013. 1-й круг. Мишель Ларшер де Бриту (Португалия) - Мария Шарапова (Россия) (2013) HDTV 1080i

0 | 1

6.88 ГБ

В этой теме нет новых непрочитанных сообщений. История Китая / China's Origins [03 из 03] (2013) HDTV 720p от waPBX

99 | 15

1.71 ГБ

В этой теме нет новых непрочитанных сообщений. BBC: 80 чудес света / Around the world in 80 treasures [01-10 из 10] (2005) DVDRip от Generalfilm

122 | 14

3.46 ГБ

В этой теме нет новых непрочитанных сообщений. BBC: 80 чудес света (1-10 серий из 10) / Around the world in 80 treasures (2005) DVDRip

30 | 12

6.84 ГБ

В этой теме нет новых непрочитанных сообщений. Заколдованный замок (Зачарованный замок) / The Haunted Palace (1963) BDRip 1080p от MediaClub

18 | 6

8.7 ГБ




Вы не можете начинать темы
Вы не можете отвечать на сообщения
Вы не можете редактировать свои сообщения
Вы не можете удалять свои сообщения
Вы не можете добавлять вложения

Перейти:  
Для Мосгорсуда, Роскомнадзора и рекламодателей: mosgorsud-torrent[собачка]yandex.ru
 Вход
ppkBB3cker v.2 © 2008-2014 @ PPK
[ Time : 0.021s | 15 Queries | GZIP : On ]

Торрент трекер RUTOR.IN, Не можете зайти на rutor.org? Какой новый адрес рутор? Какое зеркало рутор? Не работает rutor.org и зеркала? Тогда наш торрент специально для вас. Rutor.in неофициальное зеркало rutor. В случае если у Вас заблокирован rutor или вдруг Вы не можете на него зайти, то Вы без труда сможете скачать бесплатно и без рекламы последние новинки кино, игр, сериалов и прочего у нас, на Rutor.in. Не нужно использовать прокси, чтобы зайти на рутор, достаточно воспользоваться нашим ресурсом. Все новые фильмы, игры, сериалы, книги и музыка за 2013 и 2014 годы через торрент бесплатно. Скачивайте фильмы в хорошем качестве, игры для пк, xbox, playstation без регистрации. У нас вы найдете новые Зарубежные сериалы и Русские сериалы 2013, 2014, 2015 годов. Оставайтесь с нами, качайте любимые фильмы, игры, сериалы, книги и музыку.