img image001 image001 image001 image001 image001 image001 image001 image001 image001 image001 image001 image001 image001 image001 image001

Planets Sun Sun Sun
Статистика раздачи
Автор: Nickolas3434 | Размер: 1.42 ГБ | Добавлен: 01 окт 2014
Раздают: 114    Качают: 7
Скачать торрент
Скачать торрент
Описание торрента

СообщениеДобавлено: 01 окт 2014 



История Китая






Оригинальное название: China's Origins (China The Beginning)
Год Выпуска: 2013
Страна: Франция
Жанр: Документальный сериал
Продолжительность: 00:49:58, 00:51:53
Режиссер: Сергэ Тигнерес

Канал: Viasat History
Язык комментария: Русский
Текст читает: Виктория Бабанова

Описание:
01.Исчезнувшая династия:
По легенде первая китайская династия «Ся» основали незадолго до 2000 г до Н.Э. люди, пережившие природные катаклизм. Желтая река вышла из берегов произведя к наводнению длившемуся несколько лет, в живых осталось лишь горстка людей. Боролся с потопом один человек, которого люди тут-же назвали посланным богом предводителем — это был основатель первой великой восточной цивилизации Юй Великий. Долгое время это предание позволяло правителям срединного царства узаконивать свое централизовано господство.

02.Взлёт и падение династии Шан:
Династия Шан правила в Китае с 1600 до 1027 года до н.э. Это первая династия о существовании которой стало известно не только с археологических находок но и с нормативных и эпиграфических письменных источников. Весной 2012 года во время дорожных работ были обнаружены руины одного из городов этой великой династии.


Качество: SATRip
Формат: MKV
Видео: XviD, 1798 Кбит/сек, 720x400, 25.000 кадр/сек
Аудио: AC3, 192 Кбит/сек, 2 канала, 48 КГц





Общее
Полное имя : История Китая 1-2История Китая 2-я серия.avi
Формат : AVI
Формат/Информация : Audio Video Interleave
Размер файла : 742 Мбайт
Продолжительность : 51 м.
Общий поток : 1998 Кбит/сек
Программа кодирования : TMPGEnc Video Mastering Works 5 Version. 5.0.6.38
Библиотека кодирования : TMPGEnc Video Mastering Works 5 Version. 5.0.6.38

Видео
Идентификатор : 0
Формат : MPEG-4 Visual
Профиль формата : Advanced Simple@L5
Параметр BVOP формата : 2
Параметр QPel формата : Нет
Параметр GMC формата : Без точки перехода
Параметр матрицы формата : Default (H.263)
Режим смешивания : Сжатый битовый поток
Идентификатор кодека : XVID
Идентификатор кодека/Подсказка : XviD
Продолжительность : 51 м.
Битрейт : 1798 Кбит/сек
Ширина : 720 пикселей
Высота : 400 пикселей
Соотношение сторон : 16:9
Частота кадров : 25,000 кадров/сек
Цветовое пространство : YUV
Субдискретизация насыщенности : 4:2:0
Битовая глубина : 8 бит
Тип развёртки : Прогрессивная
Метод сжатия : С потерями
Бит/(Пиксели*Кадры) : 0.250
Размер потока : 668 Мбайт (90%)
Библиотека кодирования : XviD 64

Аудио
Идентификатор : 1
Формат : AC-3
Формат/Информация : Audio Coding 3
Расширение режима : CM (complete main)
Параметр Endianness формата : Big
Идентификатор кодека : 2000
Продолжительность : 51 м.
Вид битрейта : Постоянный
Битрейт : 192 Кбит/сек
Каналы : 2 канала
Расположение каналов : Front: L R
Частота : 48,0 КГц
Битовая глубина : 16 бит
Метод сжатия : С потерями
Размер потока : 71,3 Мбайт (10%)
Выравнивание : Соединение по промежуткам
Продолжительность промежутка : 240 мс. (6,00 видеокадров)
Время предзагрузки промежутка : 224 мс.



   Похожие торренты   Торрент   Размер 
В этой теме нет новых непрочитанных сообщений. История Китая / China's Origins [03 из 03] (2013) HDTV 720p от waPBX

99 | 15

1.71 ГБ

В этой теме нет новых непрочитанных сообщений. NG: Затонувшие сокровища Китая / Sunken treasures of China (2008) SATRip

83 | 6

710.64 МБ

В этой теме нет новых непрочитанных сообщений. National Geographic : Глиняная армия Китая / China's Host Army (2010) SATRip by Alex Smit

18 | 3

571.23 МБ

В этой теме нет новых непрочитанных сообщений. National Geographic : Тайны древности: Потерянные пирамиды Китая / Ancient Secrets: China's lost Pyramids(2010) SATRip

3 | 2

581.29 МБ

В этой теме нет новых непрочитанных сообщений. Моря Китая / China Seas (1935) DVDRip от Generalfilm

0 | 13

1.46 ГБ

В этой теме нет новых непрочитанных сообщений. Таинственные мумии Китая / China's Mystery Mummies (2007) DVDRip

5 | 2

1.04 ГБ

В этой теме нет новых непрочитанных сообщений. National Geographic. Суперсооружения: Глубоководный порт, гордость Китая / National Geographic. MegaStructures: China's Ultimate Port (2007) SATRip от tenow

1 | 4

495.61 МБ




Вы не можете начинать темы
Вы не можете отвечать на сообщения
Вы не можете редактировать свои сообщения
Вы не можете удалять свои сообщения
Вы не можете добавлять вложения

Перейти:  
Для Мосгорсуда, Роскомнадзора и рекламодателей: mosgorsud-torrent[собачка]yandex.ru
 Вход
ppkBB3cker v.2 © 2008-2014 @ PPK
[ Time : 0.038s | 16 Queries | GZIP : Off ]

Торрент трекер RUTOR.IN, Не можете зайти на rutor.org? Какой новый адрес рутор? Какое зеркало рутор? Не работает rutor.org и зеркала? Тогда наш торрент специально для вас. Rutor.in неофициальное зеркало rutor. В случае если у Вас заблокирован rutor или вдруг Вы не можете на него зайти, то Вы без труда сможете скачать бесплатно и без рекламы последние новинки кино, игр, сериалов и прочего у нас, на Rutor.in. Не нужно использовать прокси, чтобы зайти на рутор, достаточно воспользоваться нашим ресурсом. Все новые фильмы, игры, сериалы, книги и музыка за 2013 и 2014 годы через торрент бесплатно. Скачивайте фильмы в хорошем качестве, игры для пк, xbox, playstation без регистрации. У нас вы найдете новые Зарубежные сериалы и Русские сериалы 2013, 2014, 2015 годов. Оставайтесь с нами, качайте любимые фильмы, игры, сериалы, книги и музыку.
cron