img image001 image001 image001 image001 image001 image001 image001 image001 image001 image001 image001 image001 image001 image001 image001

Planets Sun Sun Sun
Статистика раздачи
Автор: Nickolas3434 | Размер: 1.01 ГБ | Добавлен: 25 окт 2014
Раздают: 321    Качают: 51
Скачать торрент
Скачать торрент
Описание торрента

СообщениеДобавлено: 25 окт 2014 


Информация о фильме
Название: Большая страна
Год: 2014
Жанр: познавательный, документальный фильм
Выпущено: Россия ООО "ЦЛ Киллица" по заказу ТВЦ
Режиссер Андрей Симонов
В ролях: Алексей Войтюк (закадровая озвучка)
О фильме:
Его родители молились о том, чтобы мальчик остался в живых. Его мама мечтала, чтобы сын стал священником. Семинарию он так и не окончил. Зато превратился из Сосо Джугашвили в великого товарища Сталина. Как это произошло, зрители узнают, посмотрев новый документальный фильм "Иосиф Сталин. Как стать вождём".
Лев Троцкий называл Сталина посредственностью. Но если это так, то почему сын бедного сапожника, грузин из маленького горного селения смог стать главой огромной державы и правил железной рукой почти тридцать лет? И кто или что помогли ему взойти на вершину?
Смотрите документальный фильм "Иосиф Сталин. Как стать вождём".
Файл
Качество: DVB
Видео: MPEG 2, 768x576=>720x576 (4:3), 25.000 fps, 15.0 Mbps (0.336 bit/pixel)
Аудио: MP2, 48.0 KHz, 2 ch, 160 Kbps, CBR
Продолжительность: ~00:37:49
Язык: Русский
Код:
I0sif.stalin.kak.stat.v0ghdem.DVB.DeadmauvladTV.ts
Формат                                   : MPEG-TS
Размер файла                             : 1,01 Гбайт
Продолжительность                        : 37 м.
Режим общего битрейта                    : Переменный
Общий поток                              : 3836 Кбит/сек
Видео
Идентификатор                            : 69 (0x45)
Идентификатор меню                       : 1 (0x1)
Формат                                   : MPEG Video
Версия формата                           : Version 2
Профиль формата                          : Main@Main
Параметр BVOP формата                    : Да
Параметр матрицы формата                 : Выборочная
Параметр GOP формата                     : M=3, N=24
Format_Settings_PictureStructure         : Frame
Идентификатор кодека                     : 2
Продолжительность                        : 37 м.
Вид битрейта                             : Переменный
Битрейт                                  : 3485 Кбит/сек
Максимальный битрейт                     : 15,0 Мбит/сек
Ширина                                   : 720 пикселей
Высота                                   : 576 пикселей
Соотношение сторон                       : 4:3
Частота кадров                           : 25,000 кадров/сек
Стандарт вещания                         : PAL
Цветовое пространство                    : YUV
Субдискретизация насыщенности            : 4:2:0
Битовая глубина                          : 8 бит
Тип развёртки                            : Чересстрочная
Порядок развёртки                        : Верхнее поле первое
Метод сжатия                             : С потерями
Бит/(Пиксели*Кадры)                      : 0.336
Временной код первого кадра              : 00:00:00:00
Оригинал временного кода                 : Group of pictures header
Размер потока                            : 943 Мбайт (91%)
Библиотека кодирования                   : (dvd5: Jun 16 2014)
Аудио
Идентификатор                            : 68 (0x44)
Идентификатор меню                       : 1 (0x1)
Формат                                   : MPEG Audio
Версия формата                           : Version 1
Профиль формата                          : Layer 2
Идентификатор кодека                     : 3
Продолжительность                        : 37 м.
Вид битрейта                             : Постоянный
Битрейт                                  : 160 Кбит/сек
Каналы                                   : 2 канала
Частота                                  : 48,0 КГц
Метод сжатия                             : С потерями
Задержка видео                           : 40 мс.
Размер потока                            : 43,3 Мбайт (4%)
 


Релиз группа: Deadmauvlad при перезаливке на другие ресурсы указывать автора обязательно !!!!!



   Похожие торренты   Торрент   Размер 
В этой теме нет новых непрочитанных сообщений. Иосиф Сталин. Как стать вождем (2014) SATRip от Deadmauvlad

293 | 31

444.01 МБ

В этой теме нет новых непрочитанных сообщений. Радзинский Эдвард - Апокалипсис от Кобы. Иосиф Сталин. Последняя загадка (2013) MP3

535 | 21

753.85 МБ

В этой теме нет новых непрочитанных сообщений. Тайны века. Иосиф Сталин. Строка в завещании (2003) DVDRip от Pshichko66

118 | 9

500.85 МБ

В этой теме нет новых непрочитанных сообщений. Иосиф Кобзон - Поёт Иосиф Кобзон (1971) MP3

0 | 0

33.98 МБ

В этой теме нет новых непрочитанных сообщений. Сталин против Жукова. Трофейное дело (2014) SATRip от Generalfilm

685 | 24

480.66 МБ

В этой теме нет новых непрочитанных сообщений. Кто хочет стать миллионером? [эфир от 05.01] (2014) SATRip

7 | 3

601.24 МБ

В этой теме нет новых непрочитанных сообщений. Иосиф Кобзон. Моя исповедь [эфир от 27.05] (2012) IPTVRip от Киномагия

0 | 1

612.24 МБ




Вы не можете начинать темы
Вы не можете отвечать на сообщения
Вы не можете редактировать свои сообщения
Вы не можете удалять свои сообщения
Вы не можете добавлять вложения

Перейти:  
Для Мосгорсуда, Роскомнадзора и рекламодателей: mosgorsud-torrent[собачка]yandex.ru
 Вход
ppkBB3cker v.2 © 2008-2014 @ PPK
[ Time : 0.031s | 15 Queries | GZIP : Off ]

Торрент трекер RUTOR.IN, Не можете зайти на rutor.org? Какой новый адрес рутор? Какое зеркало рутор? Не работает rutor.org и зеркала? Тогда наш торрент специально для вас. Rutor.in неофициальное зеркало rutor. В случае если у Вас заблокирован rutor или вдруг Вы не можете на него зайти, то Вы без труда сможете скачать бесплатно и без рекламы последние новинки кино, игр, сериалов и прочего у нас, на Rutor.in. Не нужно использовать прокси, чтобы зайти на рутор, достаточно воспользоваться нашим ресурсом. Все новые фильмы, игры, сериалы, книги и музыка за 2013 и 2014 годы через торрент бесплатно. Скачивайте фильмы в хорошем качестве, игры для пк, xbox, playstation без регистрации. У нас вы найдете новые Зарубежные сериалы и Русские сериалы 2013, 2014, 2015 годов. Оставайтесь с нами, качайте любимые фильмы, игры, сериалы, книги и музыку.